<svg xmlns="http://www.w3.org/2000/svg"><defs><font horiz-adv-x="512"><font-face font-family="apex-5-icon-font" units-per-em="512" ascent="480" descent="-32"/><glyph unicode="" d="M128 256l192 128v-256z"/><glyph unicode="" d="M0 512h160l-160-160z"/><glyph unicode="" d="M256 480c-124 0-224-100-224-224s100-224 224-224 224 100 224 224-100 224-224 224zm0-416c-106 0-192 86-192 192s86 192 192 192 192-86 192-192-86-192-192-192zm128 192c0-71-57-128-128-128s-128 57-128 128 57 128 128 128 128-57 128-128z"/><glyph unicode="" d="M413 99c-87-86-231-86-317 0-86 87-86 231 0 317s230 86 317 0c89-90 89-230 0-317zm-39 231c10 9 10 25 0 35l-12 13c-10 9-26 9-36 0l-70-77-74 73c-9 10-25 10-35 0l-9-9c-10-10-10-26 0-35l73-74-73-74c-10-9-10-25 0-35l12-13c10-9 26-9 36 0l70 77 74-73c9-10 25-10 35 0l13 12c9 10 9 26 0 36l-77 70z"/><glyph unicode="" d="M448 32h-384c-19 0-32 13-32 32v320c0 19 13 32 32 32h32v32c0 19 13 32 32 32h32c19 0 32-13 32-32v-32h128v32c0 19 13 32 32 32h32c19 0 32-13 32-32v-32h32c19 0 32-13 32-32v-320c0-19-13-32-32-32zm-288 400c0 10-6 16-16 16s-16-6-16-16v-64c0-10 6-16 16-16s16 6 16 16zm224 0c0 10-6 16-16 16s-16-6-16-16v-64c0-10 6-16 16-16s16 6 16 16zm64-112h-384v-256h384z"/><glyph unicode="" d="M311 190s18-15 22-28c8 0 55-19 94-38-41-49-103-81-171-81s-130 32-171 81c39 19 86 38 94 38 4 11 22 28 22 28h8l2 21s-10 11-15 13c-4 6-21 73-21 73s0 6-4 8c-2 2-11 24-7 38 5 9 11 9 11 9v45c0 28 28 70 81 72 53-2 81-44 81-72v-45s9 0 11-9c4-14-5-36-9-38l-6-6s-17-69-22-73c-4-4-14-13-14-13l2-21h12z"/><glyph unicode="" d="M-1834 128v-16c26-13 42-32 42-64 0-3-22 16-22 16s-4 13-23 26c-3-13-6-23-13-32 10-13 16-32 16-61 0-3-12 19-12 19s-4 13-13 26c-10-13-23-20-35-23v115c0 7-4 10-10 10s-10-3-10-10v-115c-12 3-25 10-35 23-9-13-13-26-13-26l-12-19c0 25 6 45 16 61-7 9-10 22-13 32-19-13-23-26-23-26s-22-19-22-16c0 32 16 51 42 64v13c-26 19-42 45-42 73 0 4 22-16 22-16s4-19 23-35c0 7 3 13 3 19h131c3-6 3-12 3-19 16 16 23 35 23 35l19 23c0-32-16-58-42-77zm-70 128c26 0 48-29 51-64h-99c0 35 22 64 48 64zm19-42c7 0 10 4 10 10s-3 10-10 10c-6 0-9-4-9-10s6-10 9-10zm-38 0c6 0 9 4 9 10s-3 10-9 10c-7 0-10-4-10-10s3-10 10-10zm-269-118c-10 0-16 6-16 16s6 16 16 16 16-6 16-16-6-16-16-16zm0 128c-10 0-16 6-16 16s6 16 16 16 16-6 16-16-6-16-16-16zm0-64c-10 0-16 6-16 16s6 16 16 16 16-6 16-16-6-16-16-16zm144-64h-80c-10 0-16 6-16 16s6 16 16 16h80zm-96 144c0 10 6 16 16 16h80v-32h-80c-10 0-16 6-16 16zm80-80h-64c-10 0-16 6-16 16s6 16 16 16h64c10 0 16-6 16-16s-6-16-16-16zm80 288h-128v-112c0-10-6-16-16-16h-112v-256h192v-32h-208c-10 0-16 6-16 16v307l125 125h179c10 0 16-6 16-16v-176h-32zm1184-189v-22c38-19 64-48 64-93 0-3-32 26-32 26s-6 19-38 38c-4-19-13-35-20-51 16-19 26-51 26-90 0-3-22 26-22 26s-4 22-23 41c-16-16-32-28-54-32v170c0 10-7 16-16 16-10 0-13-6-13-16v-173c-19 3-38 16-54 32-16-19-23-41-23-41s-19-29-19-26c0 38 10 67 26 90-10 16-16 32-20 51-28-16-38-39-38-39l-32-25c0 45 26 77 64 93v22c-38 26-64 67-64 112 0 3 32-26 32-26s6-28 35-54c0 10 3 19 7 29h204c4-10 7-19 7-29 29 26 35 54 35 54l32 26c0-42-26-83-64-109zm-112 189c42 0 74-42 80-96h-160c6 54 38 96 80 96zm32-64c10 0 16 6 16 16s-6 16-16 16-16-6-16-16 6-16 16-16zm-64 0c10 0 16 6 16 16s-6 16-16 16-16-6-16-16 6-16 16-16zm1312-352c-61 0-112 51-112 112s51 112 112 112 112-51 112-112-51-112-112-112zm64 128h-48v48c0 10-6 16-16 16s-16-6-16-16v-64c0-10 6-16 16-16h64c10 0 16 6 16 16s-6 16-16 16zm-102 122c-4 0-7 0-10-4v170h-128v-112c0-10-6-16-16-16h-112v-256h179c7-13 13-22 23-32h-218c-10 0-16 6-16 16v307l125 125h179c10 0 16-6 16-16v-179h-13c-3 0-6 0-9-3zm2358 182v-208l-32-32v224h-128v-112c0-10-6-16-16-16h-112v-256h138l-13-32h-141c-10 0-16 6-16 16v307l125 125h179c10 0 16-6 16-16zm-35-438l-93-26 26 93zm96 230l67-67-144-144-67 67zm-1149 48v16h-384v-176c0-10 6-16 16-16h144v-32h-144c-26 0-48 22-48 48v224c0 26 22 48 48 48h352c26 0 48-22 48-48v-80h-32zm-368 80c-10 0-16-6-16-16s6-16 16-16 16 6 16 16-6 16-16 16zm64 0c-10 0-16-6-16-16s6-16 16-16 16 6 16 16-6 16-16 16zm64 0c-10 0-16-6-16-16s6-16 16-16 16 6 16 16-6 16-16 16zm141-358l-93-26 26 93zm96 230l67-67-144-144-67 67z"/><glyph unicode="" d="M362 352c-4-10-10-19-16-29-4 3-7 3-10 7-26 12-45 25-54 38 3-16 6-38 6-67v-13h-16c-6 0-13 0-16 3v13c0 26 3 51 6 64-12-13-32-26-54-38-3-4-6-4-10-7-9 10-12 19-16 29 4 0 4 3 10 6 22 13 45 23 58 26-13 3-36 13-58 29-6 0-6 3-10 3 4 10 10 19 16 29 4-3 7-3 10-7 22-12 42-28 54-38-6 16-9 38-9 67v13h19c3 0 10 0 16-3v-13c0-26-3-51-6-64 9 10 28 26 54 38 3 4 6 4 10 7 6-7 12-16 16-29-4 0-7-3-10-3-26-16-45-26-61-29 16-3 39-13 61-26 3-3 6-6 10-6z"/><glyph unicode="" d="M445 96l-192 352-189-352zm-96 32h-221l112 205z"/><glyph unicode="" d="M512 61v-10c0-9-10-19-19-19h-282c-9 0-19 10-19 19v32c0 13 96 48 106 48 3 10 16 19 16 19h6l3 16s-6 7-9 10c-4 3-16 51-16 51s-4 7-7 7c-3 3-9 16-6 28 3 7 9 7 9 7v32c0 19 20 51 58 51s58-32 58-51v-32s6 0 9-7c3-9-3-25-6-28-3 0-3-4-3-4s-13-48-16-51c-4-3-10-9-10-9l3-16h7s12-13 16-20c9 0 105-35 105-48-3-6-3-16-3-25zm-288 99h-192c-19 0-32 13-32 32v128c0 19 13 32 32 32h32v64c0 35 29 64 64 64s64-29 64-64v-64h32c19 0 32-13 32-32v-128c0-19-13-32-32-32zm-64 256c0 19-13 32-32 32s-32-13-32-32v-64h64zm-32-128c-19 0-32-13-32-32 0-13 6-22 16-26v-38c0-10 6-16 16-16s16 6 16 16v38c10 4 16 13 16 26 0 19-13 32-32 32z"/><glyph unicode="" d="M128 256l192 128v-256z"/><glyph unicode="" d="M256 480c-124 0-224-100-224-224s100-224 224-224 224 100 224 224-100 224-224 224zm0-416c-106 0-192 86-192 192s86 192 192 192 192-86 192-192-86-192-192-192zm128 192c0-71-57-128-128-128s-128 57-128 128 57 128 128 128 128-57 128-128z"/><glyph unicode="" d="M0 512h160l-160-160z"/><glyph unicode="" d="M368 320c35 0 64-29 64-64s-29-64-64-64h-240c-35 0-64 29-64 64s29 64 64 64h240m0 16h-240c-45 0-80-35-80-80s35-80 80-80h240c45 0 80 35 80 80s-35 80-80 80zm-120 40c-5 0-8 3-8 8v64c0 5 3 8 8 8s8-3 8-8v-64c0-5-3-8-8-8zm-147-16c-2 0-5 2-7 5l-27 57c-1 5 0 10 3 12 4 1 8 0 12-4l27-57c1-5 0-8-3-11-2-2-4-2-5-2zm294 0h-3c-3 2-6 6-3 11l27 58c2 3 6 6 11 3 3-2 7-6 3-11l-27-58c-3-1-6-3-8-3zm-147-304c-5 0-8 3-8 8v64c0 5 3 8 8 8s8-3 8-8v-64c0-5-3-8-8-8zm173 22c-3 0-7 2-8 5l-27 58c-2 5 0 8 3 11 3 2 8 0 11-3l27-58c2-5 0-8-3-11 0-2-2-2-3-2zm-346 0h-3c-3 2-6 7-3 12l27 57c2 3 6 7 11 3 3-1 7-6 3-11l-27-57c-3-2-6-4-8-4z"/><glyph unicode="" d="M368 320c35 0 64-29 64-64s-29-64-64-64h-240c-35 0-64 29-64 64s29 64 64 64h240m0 16h-240c-45 0-80-35-80-80s35-80 80-80h240c45 0 80 35 80 80s-35 80-80 80z"/><glyph unicode="" d="M160 232c-22 0-40 18-40 40s18 40 40 40 40-18 40-40-18-40-40-40zm0 64c-13 0-24-11-24-24s11-24 24-24 24 11 24 24-11 24-24 24zm192-48c0-13-11-24-24-24s-24 11-24 24 11 24 24 24 24-11 24-24zm48 64c0-13-11-24-24-24s-24 11-24 24 11 24 24 24 24-11 24-24zm-48 64c0-13-11-24-24-24s-24 11-24 24 11 24 24 24 24-11 24-24zm-80 16c0-13-11-24-24-24s-24 11-24 24 11 24 24 24 24-11 24-24zm-10 56c93 0 170-64 170-141 0-59-46-109-102-109-28 0-37 8-48 16-12 8-21 16-45 16-16 0-29-9-40-17-15-11-27-21-53-21-35 0-64 32-64 70 0 103 82 186 182 186m0 16c-108 0-198-91-198-202 0-48 37-86 82-86 30 0 48 13 62 24 11 8 19 14 30 14 18 0 26-6 36-12 11-10 25-20 57-20 66 0 119 56 119 125-2 87-85 157-188 157zm167-370c-2 2-48 34-93 34-30 0-43-16-46-32h-210c-5 0-8-3-8-8s3-8 8-8h210c3-16 16-32 46-32 19 0 30 8 43 16s24 16 45 16c3 0 6 2 8 5 0 5 0 8-3 9zm-59-17c-10-7-20-13-34-13-21 0-32 8-32 24s11 24 32 24c24 0 48-11 64-19-13-3-22-10-30-16z"/><glyph unicode="" d="M256 392c106 0 189-99 216-136-27-37-110-136-216-136s-189 99-216 136c27 37 110 136 216 136m0 16c-122 0-213-123-232-152 19-29 110-152 232-152s213 123 232 152c-19 29-110 152-232 152zm0-264c-62 0-112 50-112 112s50 112 112 112 112-50 112-112-50-112-112-112zm0 208c-53 0-96-43-96-96s43-96 96-96 96 43 96 96-43 96-96 96zm45-62l-11 11-34-34-34 34-11-11 34-34-34-34 11-11 34 34 34-34 11 11-34 34z"/><glyph unicode="" d="M454 120c-11 0-20 5-28 13l-92 91c-30-11-65-5-86 18-26 25-30 59-14 92l4 10 52-51 35 35-51 51 9 5c34 16 67 10 93-14 22-23 29-56 18-87l91-91c16-16 16-42 0-59-8-8-19-13-31-13zm-115 122l99-100c10-9 26-9 36 0 9 10 9 26 0 36l-100 99 2 5c11 27 6 56-11 75-18 17-40 22-63 16l47-47-58-57-46 46c-8-24-2-45 16-62 17-18 48-23 75-11zm-323 94h32v-32h-32zm64-16h112v-16h-112zm-64-112h32v-32h-32zm64-16h112v-16h-112zm-64 80h32v-32h-32zm64-16h112v-16h-112z"/><glyph unicode="" d="M336 400v-160h160v160zm133-16l-117-117v117zm-117-128zm11 0l117 117v-117zm-235-96v16h-16v96h16v16h-48v-16h16v-96h-16v-16zm352 48v-64c0-10-6-16-16-16h-416c-10 0-16 6-16 16v160c0 10 6 16 16 16h256v16h-256c-18 0-32-14-32-32v-160c0-18 14-32 32-32h416c18 0 32 14 32 32v64z"/><glyph unicode="" d="M496 184c0-22-18-40-40-40h-400c-22 0-40 18-40 40v144c0 22 18 40 40 40h400c22 0 40-18 40-40zm-16 144c0 13-11 24-24 24h-400c-13 0-24-11-24-24v-144c0-13 11-24 24-24h400c13 0 24 11 24 24zm16-144c0-22-18-40-40-40h-400c-22 0-40 18-40 40v144c0 22 18 40 40 40h400c22 0 40-18 40-40zm-16 144c0 13-11 24-24 24h-400c-13 0-24-11-24-24v-144c0-13 11-24 24-24h400c13 0 24 11 24 24zm-274-123l-40 40c5 8 8 17 8 27 0 27-20 48-48 48-27 0-48-21-48-48s21-48 48-48c12 0 21 3 29 10l40-40zm-110 67c0 18 14 32 32 32s32-14 32-32-14-32-32-32-32 14-32 32z"/><glyph unicode="" d="M416 426c10 0 16-7 16-16v-133c0-13-8-34-18-43l-155-154c-3-3-6-5-11-5s-8 2-11 5l-151 150c-6 7-6 16 0 23l154 155c10 10 30 18 43 18h133m0 16h-133c-17 0-41-10-54-23l-154-155c-13-13-13-34 0-45l151-150c6-7 14-10 22-10s16 3 22 10l156 153c12 13 22 37 22 55v133c0 17-14 32-32 32zm-64-136c-22 0-40 17-40 40 0 22 18 40 40 40s40-18 40-40c0-21-18-40-40-40zm0 64c-13 0-24-12-24-24 0-13 11-24 24-24s24 11 24 24c0 14-11 24-24 24zm-94-189c-2 0-5 0-7 1l-64 64c-3 4-3 8 0 12 3 3 8 3 11 0l64-64c4-4 4-8 0-12 0-1-3-1-4-1zm48 48c-2 0-5 0-7 1l-64 64c-3 4-3 8 0 12 3 3 8 3 11 0l64-64c4-4 4-8 0-12 0-1-3-1-4-1z"/><glyph unicode="" d="M416 448h-320c-18 0-32-14-32-32v-320c0-18 14-32 32-32h320c18 0 32 14 32 32v320c0 18-14 32-32 32zm16-352c0-10-6-16-16-16h-320c-10 0-16 6-16 16v256h352zm-352 272v48c0 10 6 16 16 16h320c10 0 16-6 16-16v-48z"/><glyph unicode="" d="M416 208h-112v-16h112c10 0 16-6 16-16v-80c0-10-6-16-16-16h-304c-10 0-16 6-16 16v80c0 10 6 16 16 16h112v16h-112c-18 0-32-14-32-32v-80c0-18 14-32 32-32h304c18 0 32 14 32 32v80c0 18-14 32-32 32zm-38 126l-114 114-114-114c-3-3-3-8 0-11 4-3 8-3 12 0l94 95v-274c0-5 3-8 8-8s8 3 8 8v274l94-95c4-3 8-3 12 0 3 3 3 8 0 11z"/><glyph unicode="" d="M416 310l-37 37 10 10 27-27 27 27 10-10zm48-86c10 0 16-6 16-16v-64c0-10-6-16-16-16h-416c-10 0-16 6-16 16v64c0 10 6 16 16 16h416m0 16h-416c-18 0-32-14-32-32v-64c0-18 14-32 32-32h416c18 0 32 14 32 32v64c0 18-14 32-32 32zm0 160h-416c-18 0-32-14-32-32v-64c0-18 14-32 32-32h416c18 0 32 14 32 32v64c0 18-14 32-32 32zm-416-112c-10 0-16 6-16 16v64c0 10 6 16 16 16h288v-96zm432 16c0-10-6-16-16-16h-112v96h112c10 0 16-6 16-16z"/><glyph unicode="" d="M288 272v-112h144v112zm128-96h-112v80h112zm64 224h-448c-18 0-32-14-32-32v-224c0-18 14-32 32-32h448c18 0 32 14 32 32v224c0 18-14 32-32 32zm16-256c0-10-6-16-16-16h-448c-10 0-16 6-16 16v160h480zm-480 176v48c0 10 6 16 16 16h448c10 0 16-6 16-16v-48zm144 32c0-9-7-16-16-16s-16 7-16 16 7 16 16 16 16-7 16-16zm-48 0c0-9-7-16-16-16s-16 7-16 16 7 16 16 16 16-7 16-16zm-48 0c0-9-7-16-16-16s-16 7-16 16 7 16 16 16 16-7 16-16zm168-88c0 5-3 8-8 8h-144c-5 0-8-3-8-8s3-8 8-8h144c5 0 8 3 8 8zm0-48c0 5-3 8-8 8h-144c-5 0-8-3-8-8s3-8 8-8h144c5 0 8 3 8 8zm0-48c0 5-3 8-8 8h-144c-5 0-8-3-8-8s3-8 8-8h144c5 0 8 3 8 8z"/><glyph unicode="" d="M304 304c10 0 16-6 16-16v-75c0-13-8-34-18-43l-91-92c-3-3-6-4-11-4s-8 1-11 4l-95 95c-3 3-4 6-4 11s1 8 4 11l92 91c9 10 30 18 43 18h75m0 16h-75c-18 0-42-10-55-22l-91-92c-13-12-13-33 0-44l95-95c6-6 14-9 22-9s16 3 22 9l92 91c12 13 22 37 22 55v75c0 18-14 32-32 32zm-32-80c0-9-7-16-16-16s-16 7-16 16 7 16 16 16 16-7 16-16zm131-24h-32c-5 0-8 3-8 8s3 8 8 8h32c32 0 56 26 56 56s-25 56-56 56c-5 0-11-2-17-3l-13-5 3 14c2 7 2 15 2 21 0 56-45 101-101 101-55 0-101-45-101-98v-12l-11 6c-13 5-24 8-35 8-40 0-74-32-74-72 0-16 5-30 14-43 4-3 2-8-1-11-3-4-8-2-11 1-12 16-18 34-18 53 0 48 40 88 90 88 11 0 20-2 32-6 6 57 57 102 116 102 64 0 117-53 117-117v-13c45 7 83-28 83-70-1-40-35-72-75-72z"/><glyph unicode="" d="M384 160h-256c-54 0-96 42-96 96s42 96 96 96h256c54 0 96-42 96-96s-42-96-96-96zm0 160h-256c-35 0-64-29-64-64s29-64 64-64h256c35 0 64 29 64 64s-29 64-64 64z"/><glyph unicode="" d="M480 448h-448c-18 0-32-14-32-32v-320c0-18 14-32 32-32h448c18 0 32 14 32 32v320c0 18-14 32-32 32zm16-352c0-10-6-16-16-16h-448c-10 0-16 6-16 16v256h480zm-480 272v48c0 10 6 16 16 16h448c10 0 16-6 16-16v-48zm144 32c0-9-7-16-16-16s-16 7-16 16 7 16 16 16 16-7 16-16zm-48 0c0-9-7-16-16-16s-16 7-16 16 7 16 16 16 16-7 16-16zm-48 0c0-9-7-16-16-16s-16 7-16 16 7 16 16 16 16-7 16-16zm-16-80v-208h272v208zm16-80h96v-48h-96zm0-112v48h96v-48zm240 0h-128v48h128zm0 64h-128v48h128zm0 64h-240v48h240zm48 64v-144h112v144zm96-128h-80v64h80zm0 80h-80v32h80z"/><glyph unicode="" d="M496 56c0-22-18-40-40-40h-400c-22 0-40 18-40 40v144c0 22 18 40 40 40h400c22 0 40-18 40-40zm-16 144c0 13-11 24-24 24h-400c-13 0-24-11-24-24v-144c0-13 11-24 24-24h400c13 0 24 11 24 24zm-352-24v16h-48v-16h16v-96h-16v-16h48v16h-16v96zm301 202c-3 3-8 3-11 0l-34-42v128c0 18-14 32-32 32h-96c-5 0-8-3-8-8s3-8 8-8h96c10 0 16-6 16-16v-130l-34 39c-3 3-8 3-11 0s-3-8 0-11l55-61 54 64c2 5 0 9-3 13zm-269-90h96c5 0 8 3 8 8s-3 8-8 8h-96c-10 0-16 6-16 16v128l34-38c3-4 8-4 11 0 3 3 3 8 0 11l-53 59-54-64c-4-3-2-8 1-11s8-3 11 0l34 41v-126c0-18 14-32 32-32z"/><glyph unicode="" d="M112 496v-208h288v208zm112-192h-96v48h96zm0 64h-96v48h96zm80-64h-64v48h64zm0 64h-64v48h64zm80-64h-64v48h64zm0 64h-64v48h64zm0 64h-256v48h256zm112-376c0-22-18-40-40-40h-400c-22 0-40 18-40 40v144c0 22 18 40 40 40h400c22 0 40-18 40-40zm-16 144c0 13-11 24-24 24h-400c-13 0-24-11-24-24v-144c0-13 11-24 24-24h400c13 0 24 11 24 24zm-352-24v16h-48v-16h16v-96h-16v-16h48v16h-16v96z"/><glyph unicode="" d="M323 352l35 43c4 3 2 8-1 11-3 4-8 2-11-1l-34-40-34 40c-3 3-8 3-11 1-3-3-3-8-1-11l35-43-35-43c-4-3-2-8 1-11 2-2 3-2 5-2s5 2 6 3l34 40 34-40c1-1 3-3 6-3 2 0 3 0 5 2 3 3 3 8 1 11zm-83 48h-26l18 58c0 6 10 6 13 6h43c5 0 8 3 8 8s-3 8-8 8h-43c-15 0-26-6-29-18l-19-62h-37c-5 0-8-3-8-8s3-8 8-8h32l-24-83c-2-5 2-8 5-10h1c4 0 7 2 8 7l28 86h30c5 0 8 3 8 8s-3 8-8 8zm256-344c0-22-18-40-40-40h-400c-22 0-40 18-40 40v144c0 22 18 40 40 40h400c22 0 40-18 40-40zm-16 144c0 13-11 24-24 24h-400c-13 0-24-11-24-24v-144c0-13 11-24 24-24h400c13 0 24 11 24 24zm-352-24v16h-48v-16h16v-96h-16v-16h48v16h-16v96z"/><glyph unicode="" d="M378 374l-52 52c-12 12-36 22-54 22h-128c-18 0-32-14-32-32v-320c0-18 14-32 32-32h224c18 0 32 14 32 32v224c0 18-10 42-22 54zm-12-11c7-6 12-17 15-27h-77c-10 0-16 6-16 16v77c11-3 21-10 27-15zm18-267c0-10-6-16-16-16h-224c-10 0-16 6-16 16v320c0 10 6 16 16 16h128v-80c0-18 14-32 32-32h80z"/><glyph unicode="" d="M400 208h-48l-16-16h64c10 0 16-6 16-16v-80c0-10-6-16-16-16h-304c-10 0-16 6-16 16v80c0 10 6 16 16 16h64l-16 16h-48c-18 0-32-14-32-32v-80c0-18 14-32 32-32h304c18 0 32 14 32 32v80c0 18-14 32-32 32zm-266 90l114-114 114 114c3 3 3 8 0 11-4 3-8 3-12 0l-94-95v242c0 5-3 8-8 8s-8-3-8-8v-242l-94 95c-4 3-8 3-12 0-3-3-3-8 0-11z"/><glyph unicode="" d="M240 432c115 0 208-72 208-160 0-27-10-54-27-78l-5-7 3-8 32-83-88 42-6 3-7-3c-33-16-70-24-108-24-117-2-210 70-210 158s93 160 208 160m0 16c-123 0-224-78-224-176s101-176 224-176c42 0 82 10 115 26l125-58-46 120c19 26 30 56 30 88 0 98-101 176-224 176zm32-176c0-18-14-32-32-32s-32 14-32 32 14 32 32 32 32-14 32-32zm-112 0c0-18-14-32-32-32s-32 14-32 32 14 32 32 32 32-14 32-32zm224 0c0-18-14-32-32-32s-32 14-32 32 14 32 32 32 32-14 32-32z"/><glyph unicode="" d="M416 310l-37 37 10 10 27-27 27 27 10-10zm48-86c10 0 16-6 16-16v-64c0-10-6-16-16-16h-416c-10 0-16 6-16 16v64c0 10 6 16 16 16h416m0 16h-416c-18 0-32-14-32-32v-64c0-18 14-32 32-32h416c18 0 32 14 32 32v64c0 18-14 32-32 32zm0 160h-416c-18 0-32-14-32-32v-64c0-18 14-32 32-32h416c18 0 32 14 32 32v64c0 18-14 32-32 32zm-416-112c-10 0-16 6-16 16v64c0 10 6 16 16 16h288v-96zm432 16c0-10-6-16-16-16h-112v96h112c10 0 16-6 16-16z"/><glyph unicode="" d="M496 56c0-22-18-40-40-40h-400c-22 0-40 18-40 40v144c0 22 18 40 40 40h400c22 0 40-18 40-40zm-16 144c0 13-11 24-24 24h-400c-13 0-24-11-24-24v-144c0-13 11-24 24-24h400c13 0 24 11 24 24zm-352-24v16h-48v-16h16v-96h-16v-16h48v16h-16v96zm16 144h-64v176h304v-96h-16v80h-272v-144h48zm96-16h-80v80h80zm-64 16h48v48h-48zm160-16h-80v80h80zm-64 16h48v48h-48zm160-16h-80v80h80zm-64 16h48v48h-48z"/><glyph unicode="" d="M298 310l-52 52c-12 12-36 22-54 22h-96c-18 0-32-14-32-32v-256c0-18 14-32 32-32h192c18 0 32 14 32 32v160c0 18-10 42-22 54zm-12-11c7-6 12-17 15-27h-77c-10 0-16 6-16 16v77c11-3 21-10 27-15zm18-203c0-10-6-16-16-16h-192c-10 0-16 6-16 16v256c0 10 6 16 16 16h96v-80c0-18 14-32 32-32h80zm122 278l-52 52c-12 12-36 22-54 22h-96c-18 0-32-14-32-32v-16c5 0 11 0 16-2v18c0 10 6 16 16 16h96v-80c0-18 14-32 32-32h80v-160c0-10-6-16-16-16h-80v-16h80c18 0 32 14 32 32v160c0 18-10 42-22 54zm-74-38c-10 0-16 6-16 16v77c11-3 21-10 27-15l51-51c7-6 12-17 15-27z"/><glyph unicode="" d="M456 304c-29 0-51-21-54-48h-58c-5 45-42 80-88 80s-83-35-88-80h-58c-3 27-27 48-54 48-30 0-56-26-56-56s26-56 56-56c29 0 51 21 54 48h58c5-45 42-80 88-80s83 35 88 80h58c3-27 27-48 54-48 30 0 56 26 56 56s-26 56-56 56zm-400-96c-22 0-40 18-40 40s18 40 40 40 40-18 40-40-18-40-40-40zm200-32c-40 0-72 32-72 72s32 72 72 72 72-32 72-72-32-72-72-72zm200 32c-22 0-40 18-40 40s18 40 40 40 40-18 40-40-18-40-40-40zm-160 40c0-22-18-40-40-40s-40 18-40 40 18 40 40 40 40-18 40-40z"/><glyph unicode="" d="M496 56c0-22-18-40-40-40h-400c-22 0-40 18-40 40v144c0 22 18 40 40 40h400c22 0 40-18 40-40zm-16 144c0 13-11 24-24 24h-400c-13 0-24-11-24-24v-144c0-13 11-24 24-24h400c13 0 24 11 24 24zm-352-24v16h-48v-16h16v-96h-16v-16h48v16h-16v96zm168 304c30 0 56-26 56-56v-6l-3-21 21 3h6c22 0 40-18 40-40s-18-40-40-40h-248c-18 0-32 14-32 32s14 32 32 32c3 0 6 0 11-2l19-8 2 21c2 21 19 37 40 37 6 0 13-2 19-5l18-9 5 20c6 24 28 42 54 42m0 16c-34 0-62-24-70-54-8 4-16 6-26 6-29 0-53-22-56-51-5 1-10 3-16 3-27 0-48-21-48-48s21-48 48-48h248c30 0 56 26 56 56s-26 56-56 56c-3 0-6 0-10-2 2 4 2 7 2 10 0 40-32 72-72 72z"/><glyph unicode="" d="M496 56c0-22-18-40-40-40h-400c-22 0-40 18-40 40v144c0 22 18 40 40 40h400c22 0 40-18 40-40zm-16 144c0 13-11 24-24 24h-400c-13 0-24-11-24-24v-144c0-13 11-24 24-24h400c13 0 24 11 24 24zm-352-24v16h-48v-16h16v-96h-16v-16h48v16h-16v96zm14 266c-6 3-14 6-24 6-4 0-8 0-12-2-4 0-7-1-10-3-3-3-6-5-8-8s-3-8-3-13c0-4 1-8 3-11 5-1 8-3 11-5l15-4c6-2 12-4 17-5l18-5c5-2 11-5 14-8 5-3 8-6 11-11 4-5 4-11 4-18 0-8-2-14-5-19s-8-10-13-13-11-6-18-8c-6-1-12-1-19-1-8 0-16 1-22 3-8 1-13 5-19 9-5 5-10 10-13 16-5 5-7 13-7 21h18c0-6 2-11 3-16 2-5 5-8 10-11 3-3 8-5 13-6 4-2 9-2 16-2 4 0 8 0 12 2 5 1 8 1 12 4 3 2 6 5 8 8 1 4 3 8 3 13s-2 10-3 13c-2 3-5 5-10 6-5 4-10 5-14 5-7 2-12 3-18 5-5 0-11 2-16 3-6 3-11 5-16 8-3 2-6 7-10 10-3 5-3 9-3 16 0 8 2 13 5 19 3 5 6 10 11 13s11 6 16 8c7 1 13 3 19 3 8 0 15-2 21-3 7-2 11-5 16-8s8-8 11-15c4-6 5-12 5-20h-17c-2 11-5 19-12 24zm154-120c-10-7-21-8-35-8-11 0-21 1-31 6-8 5-16 10-22 16s-10 14-13 24-5 19-5 29c0 9 2 19 5 29 3 9 8 17 13 24 6 6 13 12 22 16 10 4 21 6 32 6 12 0 21-2 31-6 8-5 16-10 22-16 7-7 10-15 13-24 3-10 5-20 5-29 0-11-2-21-5-32-3-10-10-19-16-26l19-14-13-13zm0 20c6 7 10 13 13 21s5 16 5 26c0 8-2 14-4 21-1 6-4 12-9 19-5 6-10 9-16 14-7 3-15 5-23 5s-16-2-22-5-11-8-16-14c-5-7-6-13-10-19-1-7-3-15-3-21 0-8 2-15 3-21 2-6 5-13 10-19 5-7 10-10 16-15 6-3 14-4 22-4 7 0 13 1 21 4l-16 13 10 11zm78 119v-128h77v-16h-96v144z"/><glyph unicode="" d="M410 374l-52 52c-12 12-36 22-54 22h-192c-18 0-32-14-32-32v-320c0-18 14-32 32-32h288c18 0 32 14 32 32v224c0 18-10 42-22 54zm-12-11c7-6 12-17 15-27h-77c-10 0-16 6-16 16v77c11-3 21-10 27-15zm18-267c0-10-6-16-16-16h-288c-10 0-16 6-16 16v320c0 10 6 16 16 16h192v-80c0-18 14-32 32-32h80zm-256 192h80v-16h-80zm112 0h80v-16h-80zm-112-48h80v-16h-80zm112 0h80v-16h-80zm-112-48h80v-16h-80zm112 0h80v-16h-80zm-112-48h80v-16h-80zm112 0h80v-16h-80z"/><glyph unicode="" d="M296 464c30 0 56-26 56-56v-6l-3-21 21 3h6c22 0 40-18 40-40s-18-40-40-40h-248c-18 0-32 14-32 32s14 32 32 32c3 0 6 0 11-2l19-8 2 21c2 21 19 37 40 37 6 0 13-2 19-5l18-9 5 20c6 24 28 42 54 42m0 16c-34 0-62-24-70-54-8 4-16 6-26 6-29 0-53-22-56-51-5 1-10 3-16 3-27 0-48-21-48-48s21-48 48-48h248c30 0 56 26 56 56s-26 56-56 56c-3 0-6 0-10-2 2 4 2 7 2 10 0 40-32 72-72 72zm-216-240v-208h352v208zm176-192h-160v48h160zm0 64h-160v48h160zm80-64h-64v48h64zm0 64h-64v48h64zm80-64h-64v48h64zm0 64h-64v48h64zm0 64h-320v48h320z"/><glyph unicode="" d="M288 256l93-93c9-9 9-22 0-32-10-9-23-9-32 0l-93 93-93-93c-9-9-22-9-32 0-9 10-9 23 0 32l93 93-90 93c-9 9-9 22 0 32 10 9 23 9 32 0l90-93 93 93c9 9 22 9 32 0 9-10 9-23 0-32z"/><glyph unicode="" d="M432 384v-192h-352v192h352m16 16h-384v-224h384zm16 48h-416c-18 0-32-14-32-32v-256c0-18 14-32 32-32h149l-23-48h-30c-5 0-8-3-8-8s3-8 8-8h224c5 0 8 3 8 8s-3 8-8 8h-34l-22 48h152c18 0 32 14 32 34v254c0 18-14 32-32 32zm-147-368h-125l22 48h80zm163 82c0-10-8-18-16-18h-416c-10 0-16 8-16 18v254c0 10 8 16 16 16h416c10 0 16-6 16-16z"/><glyph unicode="" d="M349 19l-77 75c-3 4-3 8 0 12 3 3 8 3 11 0l61-61 86 150c2 3 7 5 12 3 3-1 4-6 3-11zm9 189c0 11-9 24-20 29l-63 21c-5 1-11 9-13 14l-4 32c22 18 35 46 35 80 0 53-35 96-80 96s-80-43-80-96c0-34 14-62 35-80l-5-30c-1-7-6-13-13-15l-62-22c-11-3-21-18-21-29l-3-50 16-1 5 51c0 5 5 13 11 14l62 21c12 3 21 16 23 27l5 24c9-4 19-6 28-6 10 0 21 3 29 6l5-24c2-11 13-24 22-27l63-22c5-2 11-10 11-15l3-49 16 1zm-209 176c0 45 29 82 65 82 37 0 66-37 66-82s-29-82-66-82c-36 0-65 37-65 82z"/><glyph unicode="" d="M480 448h-448c-18 0-32-14-32-32v-320c0-18 14-32 32-32h448c18 0 32 14 32 32v320c0 18-14 32-32 32zm-288-16h144v-80h-144zm304-336c0-10-6-16-16-16h-448c-10 0-16 6-16 16v320c0 10 6 16 16 16h144v-96h320zm0 256h-144v80h128c10 0 16-6 16-16z"/><glyph unicode="" d="M336 288h16v-16h-16zm128-224h16v-16h-16zm-256 0h16v-16h-16zm192 224h16v-16h-16zm-32 0h16v-16h-16zm64 0h16v-16h-16zm32 0h16v-16h-16zm0-32h16v-16h-16zm0-32h16v-16h-16zm0-32h16v-16h-16zm0-32h16v-16h-16zm0-32h16v-16h-16zm0-32h16v-16h-16zm-32-32h16v-16h-16zm-32 0h16v-16h-16zm-32 0h16v-16h-16zm-32 0h16v-16h-16zm-32 0h16v-16h-16zm-32 0h16v-16h-16zm-32 0h16v-16h-16zm-32 32h16v-16h-16zm0 32h16v-16h-16zm0 32h16v-16h-16zm0 32h16v-16h-16zm64 32h-224v224h256v-192l16-16v224h-288v-256h256zm120 8c-5 0-8-3-8-8v-69l-186 187c-3 4-8 4-11 0-3-3-3-8 0-11l186-187h-69c-5 0-8-3-8-8s3-8 8-8h96v96c0 5-3 8-8 8z"/><glyph unicode="" d="M382 304h-14v32c0 61-51 112-112 112s-112-46-112-107v-37h-14c-20 0-34-14-34-34v-172c0-20 14-34 34-34h252c18 0 34 14 34 34v172c0 20-14 34-34 34zm-222 37c0 49 43 91 96 91s96-43 96-96v-32h-32v34c0 35-29 64-64 64s-64-28-64-61v-37h-32zm144-37h-96v37c0 25 21 45 48 45 26 0 48-23 48-48zm96-206c0-10-8-18-18-18h-252c-10 0-18 8-18 18v172c0 10 8 18 18 18h254c10 0 16-8 16-18zm-208 142h128v-16h-128zm0-48h128v-16h-128zm0-48h128v-16h-128z"/><glyph unicode="" d="M208 384h96v-16h-96zm0-48h96v-16h-96zm0-48h96v-16h-96zm208-80c10 0 16-6 16-16v-96c0-10-6-16-16-16h-320c-10 0-16 6-16 16v96c0 10 6 16 16 16h320m0 16h-320c-18 0-32-14-32-32v-96c0-18 14-32 32-32h320c18 0 32 14 32 32v96c0 18-14 32-32 32zm-48-80h32v-32h-32zm-64 0h32v-32h-32zm-144 96v176c0 10 6 16 16 16h160c10 0 16-6 16-16v-176h16v176c0 18-14 32-32 32h-160c-18 0-32-14-32-32v-176z"/><glyph unicode="" d="M240 448h-96c-70 0-128-58-128-128 0-66 50-118 112-126v16c-54 8-96 54-96 110 0 62 50 112 112 112h96c62 0 112-50 112-112s-50-112-112-112h-64v-16h64c70 0 128 58 128 128s-58 128-128 128zm144-130v-16c54-8 96-54 96-110 0-62-50-112-112-112h-96c-62 0-112 50-112 112s50 112 112 112h64v16h-64c-70 0-128-58-128-128s58-128 128-128h96c70 0 128 58 128 128 0 66-50 118-112 126z"/><glyph unicode="" d="M256 464c115 0 208-93 208-208s-93-208-208-208-208 93-208 208 93 208 208 208m0 16c-123 0-224-101-224-224s101-224 224-224 224 101 224 224-101 224-224 224zm0-64c88 0 160-72 160-160s-72-160-160-160-160 72-160 160 72 160 160 160m0 16c-98 0-176-78-176-176s78-176 176-176 176 78 176 176-78 176-176 176zm19-64c0-11-8-19-19-19s-19 8-19 19 8 19 19 19 19-8 19-19zm0-224c0-11-8-19-19-19s-19 8-19 19 8 19 19 19 19-8 19-19zm112 112c0-11-8-19-19-19s-19 8-19 19 8 19 19 19 19-8 19-19zm-224 0c0-11-8-19-19-19s-19 8-19 19 8 19 19 19 19-8 19-19zm178 88l-104-58c-5-3-10-8-13-12l-58-104c-3-5-1-7 4-4l104 58c4 3 9 8 12 13l58 104c3 5 2 6-3 3zm-85-107c-10 0-19 8-19 19 0 10 8 19 19 19s19-8 19-19c0-10-9-19-19-19z"/><glyph unicode="" d="M368 358l-37 37 10 10 27-27 27 27 10-10zm48 90h-320c-18 0-32-14-32-32v-320c0-18 14-32 32-32h320c18 0 32 14 32 32v320c0 18-14 32-32 32zm-336-32c0 10 6 16 16 16h192v-96h-208zm352-320c0-10-6-16-16-16h-320c-10 0-16 6-16 16v64h352zm0 80h-352v64h352zm0 80h-352v64h352zm-128 80v96h112c10 0 16-6 16-16v-80z"/><glyph unicode="" d="M256 320c35 0 64-29 64-64s-29-64-64-64-64 29-64 64 29 64 64 64m0 16c-45 0-80-35-80-80s35-80 80-80 80 35 80 80-35 80-80 80zm0 128c10 0 19 0 29-2 6-14 11-32 16-52l1-8 8-4c4-1 7-1 8-3l8-3 8 5c18 11 34 21 48 25 16-11 29-25 40-40-6-14-14-30-25-48l-5-8 3-8c2-3 2-6 3-8l4-8 8-1c20-5 38-10 52-16 2-10 2-19 2-29s0-19-2-29c-14-6-32-11-52-16l-8-1-4-8c-1-4-1-7-3-8l-3-8 5-8c11-18 21-34 25-48-11-16-25-29-40-40-14 6-30 14-48 25l-8 5-8-3c-3-2-6-2-8-3l-8-4-1-8c-5-20-10-38-16-52-10-2-19-2-29-2s-19 0-29 2c-6 14-11 32-16 52l-1 8-8 4c-4 1-7 1-8 3l-8 3-8-5c-18-11-34-21-48-25-16 11-29 25-40 40 6 14 14 30 25 48l5 8-3 8c-2 3-2 6-3 8l-4 8-8 1c-20 5-38 10-52 16-2 10-2 19-2 29s0 19 2 29c14 6 32 11 52 16l8 1 4 8c1 4 1 7 3 8l3 8-5 8c-11 18-21 34-25 48 11 16 25 29 40 40 14-6 30-14 48-25l8-5 8 3c3 2 6 2 8 3l8 4 1 8c5 20 10 38 16 52 10 2 19 2 29 2m0 16c-14 0-27-2-40-3-8-18-14-39-19-64-3-2-7-3-10-3-21 12-41 24-59 30-21-16-40-35-56-56 6-18 18-37 30-59-1-3-3-7-3-10-25-5-46-13-64-19-1-13-3-26-3-40s2-27 3-40c18-8 39-14 64-19 2-3 3-7 3-10-14-21-24-41-30-59 16-22 35-42 56-56 18 6 37 18 59 30 3-1 7-3 10-3 5-25 13-46 19-64 13-1 26-3 40-3s27 2 40 3c8 18 14 39 19 64 3 2 7 3 10 3 21-14 41-24 59-30 22 16 42 35 56 56-6 18-18 37-30 59 1 3 3 7 3 10 25 5 46 13 64 19 1 13 3 26 3 40s-2 27-3 40c-18 8-39 14-64 19-2 3-3 7-3 10 14 21 24 41 30 59-16 22-35 42-56 56-18-6-37-18-59-30-3 1-7 3-10 3-5 25-13 46-19 64-13 1-26 3-40 3z"/><glyph unicode="" d="M448 432c10 0 16-6 16-16v-224c0-10-6-16-16-16h-160c-10 0-16 6-16 16v224c0 10 6 16 16 16h160m0 16h-160c-18 0-32-14-32-32v-224c0-18 14-32 32-32h160c18 0 32 14 32 32v224c0 18-14 32-32 32zm-128-64h96v-16h-96zm0-48h96v-16h-96zm0-48h96v-16h-96zm0-48h96v-16h-96zm48-96v-48c0-10-6-16-16-16h-288c-10 0-16 6-16 16v192c0 10 6 16 16 16h64c10 0 22-10 24-19v-2c6-24 30-43 56-43h32v16h-32c-18 0-35 14-40 30v2c-5 18-22 32-40 32h-64c-18 0-32-14-32-32v-192c0-18 14-32 32-32h288c18 0 32 14 32 32v48z"/><glyph unicode="" d="M472 158l-150 143-2-207 53 69 41-99 15 6-42 98zm-272 290c-75 0-136-21-136-48v-224c0-27 61-48 136-48 32 0 62 5 88 13v16c-22-7-51-11-88-11-78-2-120 20-120 30v48c27-16 75-24 120-24 32 0 62 5 88 13v16c-22-7-51-11-88-11-61 0-104 12-120 27v59c27-16 75-24 120-24 32 0 62 5 88 13v16c-22-7-51-11-88-11-61 0-104 12-120 27v53c22-16 69-26 120-26s98 10 120 26v-42h16v64c0 27-61 48-136 48zm0-80c-78 0-120 22-120 32s42 32 120 32 120-22 120-32-42-32-120-32z"/><glyph unicode="" d="M256 464c115 0 208-93 208-208s-93-208-208-208-208 93-208 208 93 208 208 208m0 16c-123 0-224-101-224-224s101-224 224-224 224 101 224 224-101 224-224 224zm0-64c88 0 160-72 160-160s-72-160-160-160-160 72-160 160 72 160 160 160m0 16c-98 0-176-78-176-176s78-176 176-176 176 78 176 176-78 176-176 176zm19-64c0-11-8-19-19-19s-19 8-19 19 8 19 19 19 19-8 19-19zm112-112c0-11-8-19-19-19s-19 8-19 19 8 19 19 19 19-8 19-19zm-224 0c0-11-8-19-19-19s-19 8-19 19 8 19 19 19 19-8 19-19zm34 78c0-10-9-19-19-19-11 0-20 9-20 19 0 11 9 20 20 20 10 0 19-9 19-20zm157 0c0-10-9-19-20-19-10 0-19 9-19 19 0 11 9 20 19 20 11 0 20-9 20-20zm-36-24c-3 4-8 2-11-1l-40-58c-3 2-6 2-9 2-18 0-32-15-32-32 0-18 14-32 32-32 17 0 32 14 32 32 0 8-4 16-8 22l40 56c0 3 0 8-4 11zm-94-150h64v-32h-64z"/><glyph unicode="" d="M288 128h16v-32h-16zm-71-3l-11 12 22 22 12-11zm-41 99h32v-16h-32zm29 71l12 12 22-23-11-11zm170 12l12-12-23-22-11 11zm-79 61c83 0 152-69 152-152s-69-152-152-152-152 69-152 152 69 152 152 152m0 16c-93 0-168-75-168-168s75-168 168-168 168 75 168 168-75 168-168 168zm90-247l-11-12-23 23 12 11zm30 87h-112v112c0 5-3 8-8 8s-8-3-8-8v-128h128c5 0 8 3 8 8s-3 8-8 8zm-122 283c-92-3-179-49-230-126v67c0 5-3 8-8 8s-8-3-8-8v-96h96c5 0 8 3 8 8s-3 8-8 8h-70c48 74 129 122 219 123 5 0 8 3 8 8s-3 8-7 8z"/><glyph unicode="" d="M264 72c-101 0-184 83-184 184s83 184 184 184 184-83 184-184-83-184-184-184m0-16c110 0 200 90 200 200s-90 200-200 200-200-90-200-200 90-200 200-200zm-86 245c-4-3-4-8 0-11 3-4 8-4 11 0l67 65v-221c0-4 3-8 8-8s8 4 8 8v221l66-65c3-4 8-4 11 0 1 1 1 3 1 6s0 5-1 6l-87 87z"/><glyph unicode="" d="M163 179c-3-3-3-8 0-11s8-3 11 0l66 66v-221c0-5 3-8 8-8s8 3 8 8v222l67-65c3-4 8-4 11 0 2 1 4 3 4 6s0 5-2 6l-86 87zm215 195l-52 52c-12 12-36 22-54 22h-144c-18 0-32-14-32-32v-320c0-18 14-32 32-32h96v16h-96c-10 0-16 6-16 16v320c0 10 6 16 16 16h144v-80c0-18 14-32 32-32h80v-224c0-10-6-16-16-16h-96v-16h96c18 0 32 14 32 32v224c0 18-10 42-22 54zm-74-38c-10 0-16 6-16 16v77c11-3 21-10 27-15l51-51c7-6 12-17 15-27z"/><glyph unicode="" d="M264 440c101 0 184-83 184-184s-83-184-184-184-184 83-184 184 83 184 184 184m0 16c-110 0-200-90-200-200s90-200 200-200 200 90 200 200-90 200-200 200zm86-245c4 3 4 8 0 11-3 4-8 4-11 0l-67-65v221c0 4-3 8-8 8s-8-4-8-8v-221l-66 67c-3 3-8 3-11 0-3-2-3-5-3-6 0-2 0-5 2-7l86-86z"/><glyph unicode="" d="M458 406l-52 52c-12 12-36 22-54 22h-128c-18 0-32-14-32-32v-64h16v64c0 10 6 16 16 16h128v-80c0-18 14-32 32-32h80v-208c0-10-6-16-16-16h-78c-2-5-5-11-8-16h86c18 0 32 14 32 32v208c0 18-10 42-22 54zm-74-38c-10 0-16 6-16 16v77c11-3 21-10 27-15l51-51c7-6 12-17 15-27zm-184-16c83 0 152-69 152-152s-69-152-152-152-152 69-152 152 69 152 152 152m0 16c-93 0-168-75-168-168s75-168 168-168 168 75 168 168-75 168-168 168zm-8-256h16v-32h-16zm-71-3l-11 12 22 22 12-11zm-41 99h32v-16h-32zm29 71l12 12 22-23-11-11zm170 12l12-12-23-22-11 11zm11-170l-11-12-23 23 12 11zm30 87h-112v112c0 5-3 8-8 8s-8-3-8-8v-128h128c5 0 8 3 8 8s-3 8-8 8z"/><glyph unicode="" d="M168 16c-22 0-40 18-40 40v400c0 22 18 40 40 40h176c22 0 40-18 40-40v-400c0-22-18-40-40-40zm176 16c13 0 24 11 24 24v400c0 13-11 24-24 24h-176c-13 0-24-11-24-24v-400c0-13 11-24 24-24zm-8 384v-304h-160v304h160m0 16h-160c-10 0-16-8-16-16v-304c0-8 6-16 16-16h160c10 0 16 8 16 16v304c0 8-6 16-16 16zm-64-368c0-9-7-16-16-16s-16 7-16 16 7 16 16 16 16-7 16-16zm0 384h-32c-5 0-8 3-8 8s3 8 8 8h32c5 0 8-3 8-8s-3-8-8-8z"/><glyph unicode="" d="M320 272c0-11-9-21-21-21-11 0-21 10-21 21 0 12 10 21 21 21 12 0 21-9 21-21zm32-77c0-13-11-24-24-24s-24 11-24 24 11 24 24 24 24-11 24-24zm-118 77c0-11-10-21-21-21-12 0-21 10-21 21 0 12 9 21 21 21 11 0 21-9 21-21zm-26-77c0-13-11-24-24-24s-24 11-24 24 11 24 24 24 24-11 24-24zm294-8l-40 48c-8 10-24 16-36 13l-30-5c-4 19-12 37-23 52 12 10 21 17 21 17 4 5 14 6 20 3l61-33c3-2 8-2 11 3 2 3 0 8-3 11l-61 34c-11 6-28 4-38-4l-22-17c-9 9-19 17-30 24 3 7 4 14 4 21 0 27-20 51-49 61 2 4 4 7 7 11 12 11 28 19 47 19 5 0 8 3 8 8s-3 8-8 8c-24 0-45-8-59-24-6-5-9-11-11-17l-15 1c-6 0-11-1-17-2-2 6-5 11-10 16-15 15-35 24-59 24-5 0-8-3-8-8s4-8 9-8c19 0 37-6 47-19l6-9c-29-10-48-34-48-61 0-7 1-14 4-21-11-6-21-15-30-24l-22 17c-10 8-27 10-38 4l-61-34c-3-2-5-6-3-11 1-5 6-7 11-3l61 33c6 3 16 2 20-1 0 0 9-8 22-17-11-16-19-33-24-52l-28 5c-13 1-29-4-37-13l-40-48c-3-3-1-8 2-11 1-2 3-2 5-2 1 0 4 2 6 3l40 48c3 3 13 7 21 7l28-5-1-18c0-15 2-30 7-44l-20-7c-11-5-24-16-29-27l-27-69c-1-5 0-8 5-10h3c3 0 7 2 8 5l27 69c4 6 12 16 20 18l19 6c22-50 72-85 131-85s109 35 131 85l19-6c7-4 16-12 20-18l27-70c1-4 5-5 8-5h3c5 1 6 6 5 9l-27 71c-5 11-16 22-29 27l-20 7c5 14 7 29 7 44 0 6 0 11-1 16l30 5c6 2 17-3 21-8l40-48c1-2 3-3 6-3 2 0 3 0 5 1 3 5 5 10 1 13zm-310 165c0 29 29 51 64 51s64-24 64-51c0-4-1-7-2-11-19 9-40 14-62 14s-43-5-62-14c-1 4-2 7-2 11zm64-269c-16 0-30 3-44 8 18 14 34 31 44 50 11-19 26-36 44-50-13-5-28-8-44-8zm61 16c-25 16-44 38-55 64-1 7-11 7-14 0-10-27-29-49-54-64-39 22-66 64-66 112 0 71 58 128 128 128s128-57 128-128c0-48-27-90-67-112z"/><glyph unicode="" d="M226 290c-2 0-4 0-4 1-14 8-28 15-44 19-16 5-34 10-52 13-4 0-8 5-6 10 0 5 5 8 10 6 17-3 36-8 52-14 16-7 32-13 47-21 3-2 5-6 3-11 0-2-3-3-6-3zm0-96c-2 0-4 0-4 1-14 8-28 15-44 19-16 5-34 10-52 13-4 0-8 5-6 10 0 5 5 8 10 6 17-3 36-8 52-14 16-7 32-13 47-21 3-2 5-6 3-11 0-2-3-3-6-3zm230 248c-72-2-141-24-192-64-48 38-117 62-192 64h-8v-303h8c72-1 139-24 184-61l8-6 8 6c48 39 114 60 184 61h8v303zm-376-288v272c69-4 133-26 176-61v-267c-46 33-109 54-176 56zm368 0c-66-4-128-23-176-58v267c46 37 109 58 176 61zm-146 136c-3 0-4 1-6 4-2 4 0 8 3 12 15 8 31 14 47 20 17 7 35 12 52 15 5 1 8-2 10-7 0-4-2-8-6-9-18-3-36-8-52-13s-30-13-44-19c0-2-2-3-4-3zm0-96c-3 0-4 1-6 4-2 4 0 8 3 12 15 8 31 14 47 20 17 7 35 12 52 15 5 1 8-2 10-7 0-4-2-8-6-9-18-3-36-8-52-13s-30-13-44-19c0-2-2-3-4-3z"/><glyph unicode="" d="M456 406l-51 52c-15 11-40 22-58 22h-128c-16 0-27-14-27-32v-66s0 2 16 2v64c0 10 3 16 13 16h133v-80c0-18 11-32 28-32h82v-224c0-10-11-16-19-16h-48c-3-5-7-11-11-16h59c17 0 35 14 35 32v224c0 18-13 42-24 54zm-75-38c-10 0-13 6-13 16v77c0-3 19-8 26-15l49-51c7-6 11-11 15-27zm-160 0c-59 0-112-26-146-66-24-28-38-64-38-102-2-93 81-168 184-168 102 0 184 75 184 168s-83 168-184 168zm131-74c21-24 34-54 35-86h-85c-1 21-4 42-11 59 23 8 43 18 61 27zm-13 12c-16-8-33-16-54-23-10 26-24 48-35 66 35-5 67-21 89-43zm-185-98c1 19 4 38 9 56 18-5 37-8 56-8s39 3 56 8c7-18 10-37 10-56zm132-16c-1-19-4-38-9-56-18 5-37 8-56 8s-39-3-56-8c-7 18-10 37-10 56zm-65 160h9c12-14 29-40 42-72-16-3-34-6-51-6-18 0-35 3-51 6 12 32 30 58 41 72h10zm-32-3c-13-18-26-40-35-66-21 7-39 15-55 23 24 22 56 38 90 43zm-101-55c18-9 38-19 61-25-7-19-10-39-11-59h-85c1 30 14 60 35 84zm0-188c-21 24-34 54-35 86h85c1-21 4-42 11-59-23-8-43-18-61-27zm13-12c16 8 33 16 54 23 10-26 24-48 35-66-35 5-67 21-89 43zm120-46h-10c-11 14-29 40-41 72 16 3 33 6 51 6 17 0 35-3 51-6-13-32-30-58-42-72h-9zm30 3c13 18 26 40 35 66 21-7 39-15 55-23-24-22-56-38-90-43zm101 55c-18 9-38 19-61 25 7 19 10 39 11 59h85c-1-30-14-60-35-84z"/><glyph unicode="" d="M256 464c115 0 208-93 208-208s-93-208-208-208-208 93-208 208 93 208 208 208m0 16c-123 0-224-101-224-224s101-224 224-224 224 101 224 224-101 224-224 224zm0-64c-88 0-160-72-160-160s72-160 160-160 160 72 160 160-72 160-160 160zm85-94l-91-160-76 75c-6 6-6 16 0 22 4 3 7 5 12 5 4 0 8-2 11-5l46-46 72 125c3 4 8 8 13 8 3 0 5 0 8-2 6-5 8-14 5-22z"/><glyph unicode="" d="M256 464c115 0 208-93 208-208s-93-208-208-208-208 93-208 208 93 208 208 208m0 16c-123 0-224-101-224-224s101-224 224-224 224 101 224 224-101 224-224 224zm0-80c80 0 144-64 144-144s-64-144-144-144-144 64-144 144 64 144 144 144m0 16c-88 0-160-72-160-160s72-160 160-160 160 72 160 160-72 160-160 160zm-77-176c-9 0-19 8-19 16 0 10 8 16 19 16h155c10 0 20-6 20-16 0-8-8-16-20-16z"/><glyph unicode="" d="M256 450c-107 0-192-92-192-202s85-200 192-200 192 90 192 200-85 202-192 202zm174-194h-94c0 32-3 53-10 77 26 5 50 13 71 22 19-27 32-62 33-99zm-108 93c-10 29-23 56-39 80 42-7 77-27 104-59-21-10-41-16-65-21zm-66-283h-5c-19 25-33 52-45 84 16 2 32 4 50 4 16 0 34-2 50-4-10-30-26-59-45-84h-5zm0 104c-19 0-37-2-54-5-7 24-10 43-10 75h128c0-32-3-51-10-75-17 3-35 5-54 5zm-64 86c0 32 3 51 10 75 17-3 35-3 54-3s37 2 54 3c7-24 10-43 10-75zm64 174h5c19-25 33-52 45-84-16-2-32-4-50-4-16 0-34 2-50 4 10 30 26 59 45 84h5zm-26-1c-16-24-30-51-38-80-24 5-46 11-66 21 26 30 63 52 104 59zm-44-96c-7-24-10-45-10-77h-94c1 37 14 72 33 101 21-11 45-19 71-24zm-104-93h94c0-32 3-53 10-77-26-5-50-13-71-22-19 27-32 62-33 99zm108-93c10-29 23-56 39-80-42 7-77 27-104 59 21 10 41 16 65 21zm92-78c16 24 30 51 38 80 24-5 46-11 66-21-26-32-63-53-104-59zm44 94c7 24 10 45 10 77h94c-1-37-14-72-33-101-23 11-45 19-71 24z"/><glyph unicode="" d="M352 208c-27 0-48-21-48-48s21-48 48-48 48 21 48 48-21 48-48 48zm0-80c-18 0-32 14-32 32s14 32 32 32 32-14 32-32-14-32-32-32zm-176 240h-80c-4 0-8-4-8-8s4-8 8-8h80c4 0 8 4 8 8s-4 8-8 8zm0-48h-80c-4 0-8-4-8-8s4-8 8-8h80c4 0 8 4 8 8s-4 8-8 8zm64 8v88h-32v80h-48v-80h-48v80h-48v-80h-32v-88c0-55 42-100 96-104v-16c0-48-39-80-88-80h-8v-16h8c57 0 104 39 104 96v16c54 4 96 49 96 104zm-64 152h16v-64h-16zm-96 0h16v-64h-16zm56-240c-49 0-88 39-88 88v72h176v-72c0-49-39-88-88-88zm360-112v64l-44 6-2 6 26 35-45 45-35-26-6 2-6 44h-64l-6-44-6-2-35 26-45-45 26-35-2-6-44-6v-64l44-6 2-6-26-35 45-45 35 26 6-2 6-44h64l6 44 6 2 35-26 45 45-26 35 2 6zm-55 8l-4-9c0-1-1-3-2-4l-4-9 6-7 18-25-25-25-25 18-7 6-9-4c-1-1-3-2-4-2l-9-4-2-9-4-30h-36l-4 30-2 9-9 4c-1 0-3 1-4 2l-9 4-7-6-25-18-25 25 18 25 6 7-4 9c-1 1-2 3-2 4l-4 9-9 2-30 4v36l30 4 9 2 4 9c0 1 1 3 2 4l4 9-6 7-18 25 25 25 25-18 7-6 9 4c1 1 3 2 4 2l9 4 2 9 4 30h35l5-30 1-9 9-4c2 0 4-1 5-2l9-4 7 6 25 18 25-25-18-25-6-7 4-9c1-1 2-3 2-4l4-9 9-2 30-4v-36l-30-4z"/><glyph unicode="" d="M295 428c-7 6-17 5-23-1-6-7-5-17 1-23l162-148h-407c-9 0-16-7-16-16s7-16 16-16h407l-162-148c-6-6-7-16-1-23 4-3 8-5 12-5s8 1 11 4l205 188z"/><glyph unicode="" d="M128 256c0-35-29-64-64-64s-64 29-64 64c0 36 29 64 64 64s64-28 64-64zm384 0c0-35-29-64-64-64s-64 29-64 64c0 36 29 64 64 64s64-28 64-64zm-347 139c-7-6-7-16 0-22l116-115-116-119c-7-6-7-16 0-22 3-3 7-5 11-5s8 2 11 5l140 141-140 137c-6 7-16 7-22 0z"/><glyph unicode="" d="M384 384c53 0 96-43 96-96v-64c0-53-43-96-96-96h-256c-53 0-96 43-96 96v64c0 53 43 96 96 96h256m0 32h-256c-70 0-128-58-128-128v-64c0-70 58-128 128-128h256c70 0 128 58 128 128v64c0 70-58 128-128 128z"/><glyph unicode="" d="M160 416h64v32h-160v-32h64v-320h-64v-32h160v32h-64zm-64-224h-64v128h64v32h-96v-192h96zm96 160v-32h288v-128h-288v-32h320v192z"/><glyph unicode="" d="M0 480h96v-96h-96zm160-32h352v-32h-352zm-160-128h96v-96h-96zm160-32h352v-32h-352zm-160-128h96v-96h-96zm160-32h352v-32h-352z"/><glyph unicode="" d="M0 512v-128h128v-384h320v384h64v128zm32-96v64h96v-64zm384-384h-256v96h256zm0 128h-256v96h256zm0 128h-256v96h256zm64 128h-192v64h192zm-288-192h192v-32h-192zm0 128h192v-32h-192zm0-256h192v-32h-192z"/><glyph unicode="" d="M412 412c-42 41-97 64-156 64s-114-23-156-64c-41-42-64-97-64-156 0-9 7-16 16-16s16 7 16 16c0 50 20 97 55 133 36 35 83 55 133 55s97-20 133-55l-69-69h160v160zm48-140c-9 0-16-7-16-16 0-50-20-97-55-133-36-35-83-55-133-55s-97 20-133 55l69 69h-160v-160l68 68c42-41 97-64 156-64s114 23 156 64c41 42 64 97 64 156 0 9-7 16-16 16z"/><glyph unicode="" d="M480 384v-288c0-18-14-32-32-32h-384c-18 0-32 14-32 32v288zm-32 96h-384c-35 0-64-29-64-64v-320c0-35 29-64 64-64h384c35 0 64 29 64 64v320c0 35-29 64-64 64z"/><glyph unicode="" d="M480 448h-448c-18 0-32-14-32-32v-320c0-18 14-32 32-32h448c18 0 32 14 32 32v320c0 18-14 32-32 32zm-160-32v-64h-128v64zm160-320h-448v320h128v-96h320zm-128 256v64h128v-64z"/><glyph unicode="" d="M244 334c-16-3-30-16-38-32-7-14-16-58-78-74 16-17 51-48 115-31 68 18 83 63 75 95-2 5-4 10-7 15l160 159c6 7 6 17 0 23s-16 6-22 0l-161-160c-12 6-27 8-44 5zm236 18v-256h-448v320h256v32h-288v-384h512v288z"/><glyph unicode="" d="M256 512c-141 0-256-115-256-256s115-256 256-256 256 115 256 256-115 256-256 256zm0-480c-124 0-224 100-224 224s100 224 224 224 224-100 224-224-100-224-224-224zm102 335l-129-188-77 82c-6 6-16 6-22 0-7-6-7-16-1-22l104-110 151 220c5 7 4 17-4 22-7 5-17 3-22-4z"/><glyph unicode="" d="M334 181c2-1 4-1 5-1 7 0 13 4 15 11 3 8-1 17-9 20l-66 23c-2 1-5 6-6 8l-3 35c30 23 50 62 50 107 0 71-50 128-112 128-61 0-112-57-112-128 0-46 22-86 53-108l-3-34c0-2-3-7-6-8l-92-32c-13-5-25-19-28-34l-17-93c-1-8 5-17 13-18h3c8 0 15 5 16 13l17 93c0 3 4 7 7 9l92 32c14 5 26 20 27 35l2 22c9-3 19-5 28-5 11 0 22 2 31 6l3-23c1-15 13-30 27-35zm-206 203c0 53 36 96 80 96s80-43 80-96-36-96-80-96-80 43-80 96zm373-82c-8 4-18 2-22-6l-133-237-66 67c-6 7-16 7-22 1-7-7-7-17-1-23l96-99 154 275c4 8 1 18-6 22z"/><glyph unicode="" d="M448 512h-384c-35 0-64-29-64-64v-96c0-35 29-64 64-64h384c35 0 64 29 64 64v96c0 35-29 64-64 64zm32-160c0-18-14-32-32-32h-384c-18 0-32 14-32 32v96c0 18 14 32 32 32h384c18 0 32-14 32-32zm-32-128h-384c-35 0-64-29-64-64v-96c0-35 29-64 64-64h384c35 0 64 29 64 64v96c0 35-29 64-64 64zm32-160c0-18-14-32-32-32h-384c-18 0-32 14-32 32v96c0 18 14 32 32 32h384c18 0 32-14 32-32zm-304 384h-96c-9 0-16-7-16-16v-64c0-9 7-16 16-16h96c9 0 16 7 16 16v64c0 9-7 16-16 16zm256-288h-96c-9 0-16-7-16-16v-64c0-9 7-16 16-16h96c9 0 16 7 16 16v64c0 9-7 16-16 16z"/><glyph unicode="" d="M352 416v96h-64v-96h-64v96h-64v-96h-32v-128c3-62 51-112 111-120-2-70-59-120-136-120-9 0-16-7-16-16s7-16 16-16c94 0 166 65 168 152 61 8 110 58 113 120v128zm0-128c-4-50-45-89-96-89s-92 39-96 89v32h192zm0 64h-192v32h192z"/><glyph unicode="" d="M480 320h-256v-32h256v-64h-384v-192c0-18 14-32 32-32h352c18 0 32 14 32 32v256c0 18-14 32-32 32zm-192-288h-160v64h160zm0 96h-160v64h160zm192-96h-160v64h160zm0 96h-160v64h160zm-261 269l-22 23-69-69v161h-32v-161l-69 69-22-23 107-107z"/><glyph unicode="" d="M320 384c53 0 96-43 96-96 0-7-1-15-4-25l-9-35 36-5c23-3 41-23 41-47 0-26-22-48-48-48h-352c-26 0-48 22-48 48s22 48 48 48h5l31-5 5 31c5 31 32 54 63 54 3 0 7 0 12-1l26-5 9 25c15 37 50 61 89 61m0 32c-54 0-100-34-119-82-5 1-11 2-17 2-48 0-87-35-94-81-4 1-7 1-10 1-44 0-80-36-80-80s36-80 80-80h352c44 0 80 36 80 80 0 40-30 73-69 79 3 11 5 21 5 33 0 71-57 128-128 128z"/><glyph unicode="" d="M496 288h-48v80c0 9-7 16-16 16h-224c-9 0-19 6-23 14l-18 36c-4 8-14 14-23 14h-128c-9 0-16-7-16-16v-352c0-7 4-13 10-15 2-1 4-1 6-1h384c9 0 19 7 22 15l84 194c3 8-1 15-10 15zm-368 128h6l19-32c10-19 34-32 55-32h208v-64h-304c-9 0-19-7-22-15l-58-134v277zm267-320h-346l68 160h339z"/><glyph unicode="" d="M432 384h-192c-9 0-21 5-27 11l-42 42c-6 6-18 11-27 11h-128c-9 0-16-7-16-16v-352c0-9 7-16 16-16h416c9 0 16 7 16 16v288c0 9-7 16-16 16z"/><glyph unicode="" d="M432 384h-192c-9 0-21 5-27 11l-42 42c-6 6-18 11-27 11h-128c-9 0-16-7-16-16v-352c0-9 7-16 16-16h416c9 0 16 7 16 16v288c0 9-7 16-16 16zm-16-288h-384v320h104c1 0 8-1 9-2l43-41c12-12 35-21 52-21h176z"/><glyph unicode="" d="M496 288h-48v-32h-315c-9 0-19-7-22-15l-56-124c-4-8-9-8-13 0l-3 7c-4 8-4 21-1 29l52 120c3 8 13 15 22 15h336v80c0 9-7 16-16 16h-224c-9 0-19 6-23 14l-18 36c-4 8-14 14-23 14h-128c-9 0-16-7-16-16v-352c0-7 4-13 10-15 2-1 4-1 6-1h384c9 0 19 7 22 15l84 194c3 8-1 15-10 15z"/><glyph unicode="" d="M396 316c18-21 29-44 29-70 0-71-84-130-187-130-26 0-52 4-76 12l-7 2-6-3-80-46 21 74 3 10-7 6c-23 23-35 48-35 75 0 72 84 130 187 130 26 0 50-4 72-10l13 12c-26 9-55 14-85 14-112 0-203-65-203-146 0-32 15-62 40-86l-32-113 114 66c25-8 52-13 81-13 112 0 203 66 203 146 0 30-13 58-34 81zm78 112l-33 34c-2 2-4 3-6 3s-4-1-6-3l-160-160c-2-3-5-8-6-11l-19-55c-1-4 0-6 3-6 0 0 1 1 2 1l54 19 11 7 160 160c4 3 4 8 0 11zm-182-126l117 117 22-23-117-116zm5-37l-30-10 11 31c0 1 2 3 3 5l22-22c-2-2-4-3-6-4zm145 143l-22 22 15 15 23-22z"/><glyph unicode="" d="M152 328c103 0 136 36 136 36v84c0 46-113 48-136 48s-136-2-136-48v-84s33-36 136-36zm0 152c66 0 120-14 120-32s-54-32-120-32-120 14-120 32 54 32 120 32zm-120-55c23-15 68-25 120-25s97 10 120 25v-54c-17-13-59-27-120-27s-103 14-120 27zm120-362c-61 0-103 13-120 27v54c23-15 68-25 120-25 27 0 52 3 73 7-1 6-1 12-1 18-20-5-44-8-72-8-61 0-103 14-120 27v54c23-15 68-25 120-25 32 0 61 4 85 10 2 7 5 12 9 18-22-7-56-12-94-12-66 0-120 14-120 32s54 32 120 32c56 0 103-10 116-24l12 10c-25 28-109 30-128 30-23 0-136-2-136-48v-157s33-36 136-36c45 0 77 7 98 14-3 5-6 9-8 14-22-7-53-12-90-12zm216 209c-71 0-128-57-128-128s57-128 128-128 128 57 128 128-57 128-128 128zm0-240c-62 0-112 50-112 112s50 112 112 112 112-50 112-112-50-112-112-112zm16 176h-32v-48h-48v-32h48v-48h32v48h48v32h-48z"/><glyph unicode="" d="M160 320h192v-16h-192zm0-64h192v-16h-192zm0-64h192v-16h-192zm349-70c-3 3-8 2-11-1l-50-57v385c0 18-14 31-32 31h-208c-4 0-8-4-8-8s4-8 8-8h208c9 0 16-6 16-15v-385l-50 54c-3 4-8 4-11 1-4-3-4-8-1-11l70-77 70 80c3 3 3 8-1 11zm-413-90h208c4 0 8 4 8 8s-4 8-8 8h-208c-9 0-16 8-16 17v383l50-54c3-4 8-4 11-1 4 3 4 8 1 11l-70 77-70-80c-3-3-3-8 1-11 3-3 8-2 11 1l50 57v-383c0-18 14-33 32-33z"/><glyph unicode="" d="M509 121c-3 3-8 3-11-1l-50-57v385c0 18-14 32-32 32h-224c-4 0-8-4-8-8s4-8 8-8h224c9 0 16-7 16-16v-385l-50 54c-3 4-8 4-11 1-4-3-4-8-1-11l70-77 70 80c3 3 3 8-1 11zm-413-89h224c4 0 8 4 8 8s-4 8-8 8h-224c-9 0-16 7-16 16v383l50-54c3-3 8-4 11-1 4 3 4 8 1 12l-70 76-70-80c-3-3-3-8 1-11 3-3 8-2 11 1l50 57v-383c0-18 14-32 32-32zm240 336h-160c-9 0-16-7-16-16v-32c0-9 7-16 16-16h160c9 0 16 7 16 16v32c0 9-7 16-16 16zm0-48h-160v32h160zm0-48h-160c-9 0-16-7-16-16v-32c0-9 7-16 16-16h160c9 0 16 7 16 16v32c0 9-7 16-16 16zm0-48h-160v32h160zm0-48h-96c-9 0-16-7-16-16v-16c0-9 7-16 16-16h96c9 0 16 7 16 16v16c0 9-7 16-16 16z"/><glyph unicode="" d="M352 208c-27 0-48-21-48-48s21-48 48-48 48 21 48 48-21 48-48 48zm0-80c-18 0-32 14-32 32s14 32 32 32 32-14 32-32-14-32-32-32zm144 0v64l-44 6-2 6 26 35-45 45-35-26-6 2-6 44h-64l-6-44-6-2-35 26-45-45 26-35-2-6-44-6v-64l44-6 2-6-26-35 45-45 35 26 6-2 6-44h64l6 44 6 2 35-26 45 45-26 35 2 6zm-55 8l-4-9c0-1-1-3-2-4l-4-9 6-7 18-25-25-25-25 18-7 6-9-4c-1-1-3-2-4-2l-9-4-2-9-4-30h-36l-4 30-2 9-9 4c-1 0-3 1-4 2l-9 4-7-6-25-18-25 25 18 25 6 7-4 9c-1 1-2 3-2 4l-4 9-9 2-30 4v36l30 4 9 2 4 9c0 1 1 3 2 4l4 9-6 7-18 25 25 25 25-18 7-6 9 4c1 1 3 2 4 2l9 4 2 9 4 30h35l5-30 1-9 9-4c2 0 4-1 5-2l9-4 7 6 25 18 25-25-18-25-6-7 4-9c1-1 2-3 2-4l4-9 9-2 30-4v-36l-30-4zm-289 360c-75 0-136-21-136-48v-224c0-27 61-48 136-48 14 0 27 1 40 3v15c-12-1-26-2-40-2-78 0-120 23-120 32v48c28-16 75-24 120-24 20 0 38 2 56 5v16c-16-3-35-5-56-5-61 0-103 14-120 27v61c28-16 75-24 120-24s92 8 120 24v-48h16v144c0 27-61 48-136 48zm120-125c-17-13-59-27-120-27s-103 14-120 27v54c23-15 68-25 120-25s97 10 120 25zm-120 45c-78 0-120 23-120 32s42 32 120 32 120-23 120-32-42-32-120-32z"/><glyph unicode="" d="M239 240c-18-3-39-4-63-4-95 0-144 26-144 38v112c26-18 81-30 144-30s118 12 144 30v-74l16 4v94c0 30-72 54-160 54s-160-24-160-54v-136c0-30 72-54 160-54 20 0 39 1 56 3 2 6 5 12 7 17zm-63 208c95 0 144-27 144-38s-49-38-144-38-144 27-144 38 49 38 144 38zm192-160c62 0 112-50 112-112s-50-112-112-112-112 50-112 112 50 112 112 112m0 16c-71 0-128-57-128-128s57-128 128-128 128 57 128 128-57 128-128 128zm-64-112h128v-32h-128z"/><glyph unicode="" d="M368 272c62 0 112-50 112-112s-50-112-112-112-112 50-112 112 50 112 112 112m0 16c-71 0-128-57-128-128s57-128 128-128 128 57 128 128-57 128-128 128zm64-112h-48v48h-32v-48h-48v-32h48v-48h32v48h48zm-336 112c0-9-7-16-16-16s-16 7-16 16 7 16 16 16 16-7 16-16zm64 0c0-9-7-16-16-16s-16 7-16 16 7 16 16 16 16-7 16-16zm88-48h-216v96h368v-36l16-4v40c0 9-4 22-9 29l-78 118c-5 7-16 13-25 13h-176c-9 0-20-6-25-13l-78-118c-5-7-9-20-9-29v-96c0-9 7-16 16-16h207c3 6 6 11 9 16zm-210 116l78 118c2 3 9 6 12 6h176c3 0 10-3 12-6l78-118c1-1 1-2 2-4h-360c1 2 1 3 2 4z"/><glyph unicode="" d="M239 240c-18-3-39-4-63-4-95 0-144 26-144 38v112c26-18 81-30 144-30s118 12 144 30v-74l16 4v94c0 30-72 54-160 54s-160-24-160-54v-136c0-30 72-54 160-54 20 0 39 1 56 3 2 6 5 12 7 17zm-63 208c95 0 144-27 144-38s-49-38-144-38-144 27-144 38 49 38 144 38zm192-160c62 0 112-50 112-112s-50-112-112-112-112 50-112 112 50 112 112 112m0 16c-71 0-128-57-128-128s57-128 128-128 128 57 128 128-57 128-128 128zm64-112h-48v48h-32v-48h-48v-32h48v-48h32v48h48z"/><glyph unicode="" d="M442 326c-7-6-16-6-23 0l-67 64v-310c0-10-6-16-16-16s-16 6-16 16v310l-67-64c-7-6-16-6-23 0-6 7-6 16 0 23l96 93c7 6 16 6 23 0l96-93c3-7 3-16-3-23zm-378-134h128v-32h-128zm0 64h96v-32h-96zm0 64h64v-32h-64zm0 64h32v-32h-32zm160-288h-160v32h160z"/><glyph unicode="" d="M442 163l-96-93c-7-6-16-6-23 0l-96 93c-6 7-6 16 0 23 7 6 16 6 23 0l67-68v314c3 10 9 16 19 16s16-6 16-16v-310l67 67c7 6 16 6 23 0 6-10 6-19 0-26zm-378 253h160v-32h-160zm128-96h-128v32h128zm-32-64h-96v32h96zm-32-64h-64v32h64zm-32-64h-32v32h32z"/><glyph unicode="" d="M480 224h-448c-18 0-32-14-32-32v-160c0-18 14-32 32-32h448c18 0 32 14 32 32v160c0 18-14 32-32 32zm-224-192h-224v64h224zm224 0h-192v64h192zm0 96h-448v64h448zm0 384h-448c-18 0-32-14-32-32v-160c0-18 14-32 32-32h448c18 0 32 14 32 32v160c0 18-14 32-32 32zm-224-192h-224v64h224zm224 0h-192v64h192zm0 96h-448v64h448z"/><glyph unicode="" d="M192 512h-160c-18 0-32-14-32-32v-448c0-18 14-32 32-32h160c18 0 32 14 32 32v448c0 18-14 32-32 32zm0-480h-160v64h160zm0 96h-160v64h160zm0 96h-160v64h160zm0 96h-160v64h160zm0 96h-160v64h160zm299-203l-22 22-85-84-85 84-22-22 84-85-84-85 22-22 85 84 85-84 22 22-84 85z"/><glyph unicode="" d="M480 512h-448c-18 0-32-14-32-32v-448c0-18 14-32 32-32h448c18 0 32 14 32 32v448c0 18-14 32-32 32zm-224-480h-224v64h224zm0 96h-224v64h224zm0 96h-224v64h224zm0 96h-224v64h224zm224-288h-192v64h192zm0 96h-192v64h192zm0 96h-192v64h192zm0 96h-192v64h192zm0 96h-448v64h448z"/><glyph unicode="" d="M368 512l-107-107 22-23 69 69v-323h32v323l69-69 22 23zm-336-480h320v-32h-320zm0 64h256v-32h-256zm0 64h192v-32h-192zm0 64h128v-32h-128zm0 64h64v-32h-64z"/><glyph unicode="" d="M453 130l-69-69v323h-32v-323l-69 69-22-23 107-107 107 107zm-421 382h320v-32h-320zm0-64h256v-32h-256zm0-64h192v-32h-192zm0-64h128v-32h-128zm0-64h64v-32h-64z"/><glyph unicode="" d="M96 512h-64c-18 0-32-14-32-32v-64c0-18 14-32 32-32h64c18 0 32 14 32 32v64c0 18-14 32-32 32zm0-96h-64v64h64zm96 96h320v-32h-320zm0-64h320v-32h-320zm0-64h192v-32h-192zm-96-224h-64c-18 0-32-14-32-32v-64c0-18 14-32 32-32h64c18 0 32 14 32 32v64c0 18-14 32-32 32zm0-96h-64v64h64zm96 96h320v-32h-320zm0 0h320v-32h-320zm0-64h320v-32h-320zm0-64h192v-32h-192z"/><glyph unicode="" d="M192 225l26-16-13 54-53-13 26-16-40-67c-6-9-7-19-3-27 5-8 14-12 25-12h48v16h-48c-5 0-9 1-11 4-1 2 0 7 3 11zm162-31l-13-9c0-1 9-12 18-27 3-4 4-8 3-11-1-2-5-3-10-3h-80v31l-39-39 39-39v31h80c15 0 21 7 24 12 4 7 3 17-3 27-10 15-18 27-19 27zm-98 131c3 0 7-2 10-7l40-68-26-16 53-13 13 54-26-16-41 67c-6 10-14 15-23 15s-17-5-23-15l-16-27 14-8 16 27c3 5 6 7 9 7zm228 98l-56 47c-6 5-19 10-28 10h-288c-9 0-22-5-28-10l-56-47c-6-6-11-17-9-26l58-349c2-9 10-16 19-16h320c9 0 17 7 19 16l58 349c2 9-3 20-9 26zm-65-373c0-1-2-2-3-2h-320c-1 0-3 1-3 2l-59 350c0 3 2 9 5 11l55 46c4 4 13 7 18 7h288c5 0 14-3 18-7l55-46c3-2 5-8 5-11zm13 350h-352c-4 0-8-4-8-8s4-8 8-8h352c4 0 8 4 8 8s-4 8-8 8z"/><glyph unicode="" d="M228 255c1 6 3 11 5 16-17-2-36-3-57-3-95 0-144 26-144 38v112c26-18 81-30 144-30s118 12 144 30v-70l16 3v91c0 30-72 54-160 54s-160-24-160-54v-136c0-30 72-54 160-54 18 0 36 1 52 3zm-52 225c95 0 144-27 144-38s-49-38-144-38-144 27-144 38 49 38 144 38zm176-144c-62 0-112-50-112-112 0-25 8-48 22-67l-95-95c-6-6-6-16 0-23 4-3 8-4 12-4s8 1 11 4l95 95c19-14 42-22 67-22 62 0 112 50 112 112s-50 112-112 112zm68-180c-38-37-98-37-136 0-37 38-37 98 0 136 38 37 98 37 136 0 37-38 37-98 0-136z"/><glyph unicode="" d="M32 224v48c28-16 75-24 120-24 20 0 38 2 56 5v16c-16-3-35-5-56-5-61 0-103 14-120 27v61c28-16 75-24 120-24s92 8 120 24v-48h16v144c0 27-61 48-136 48s-136-21-136-48v-224c0-27 61-48 136-48 14 0 27 1 40 3v15c-12-1-26-2-40-2-78 0-120 23-120 32zm120 256c78 0 120-23 120-32s-42-32-120-32-120 23-120 32 42 32 120 32zm-120-55c23-15 68-25 120-25s97 10 120 25v-54c-17-13-59-27-120-27s-103 14-120 27zm320-121c-80 0-144-64-144-144s64-144 144-144 144 64 144 144-64 144-144 144zm0-272c-71 0-128 57-128 128s57 128 128 128 128-57 128-128-57-128-128-128zm-16 208h32v-32h-32zm32-80v16h-48v-16h16v-64h-16v-16h64v16h-16z"/><glyph unicode="" d="M448 192h-48v-16h48c9 0 16-7 16-16v-80c0-9-7-16-16-16h-384c-9 0-16 7-16 16v80c0 9 7 16 16 16h48v16h-48c-18 0-32-14-32-32v-80c0-18 14-32 32-32h384c18 0 32 14 32 32v80c0 18-14 32-32 32zm-201 57l81-81 81 81c3 3 3 8 0 11-3 4-8 4-11 0l-62-61v241c0 4-4 8-8 8s-8-4-8-8v-241l-62 61c-3 4-8 4-11 0-3-3-3-8 0-11zm18 118l-81 81-81-81c-3-3-3-8 0-11 3-4 8-4 11 0l62 61v-241c0-4 4-8 8-8s8 4 8 8v241l62-61c3-4 8-4 11 0 3 3 3 8 0 11z"/><glyph unicode="" d="M352 208c-27 0-48-21-48-48s21-48 48-48 48 21 48 48-21 48-48 48zm0-80c-18 0-32 14-32 32s14 32 32 32 32-14 32-32-14-32-32-32zm144 0v64l-44 6-2 6 26 35-45 45-35-26-6 2-6 44h-64l-6-44-6-2-35 26-45-45 26-35-2-6-44-6v-64l44-6 2-6-26-35 45-45 35 26 6-2 6-44h64l6 44 6 2 35-26 45 45-26 35 2 6zm-55 8l-4-9c0-1-1-3-2-4l-4-9 6-7 18-25-25-25-25 18-7 6-9-4c-1-1-3-2-4-2l-9-4-2-9-4-30h-36l-4 30-2 9-9 4c-1 0-3 1-4 2l-9 4-7-6-25-18-25 25 18 25 6 7-4 9c-1 1-2 3-2 4l-4 9-9 2-30 4v36l30 4 9 2 4 9c0 1 1 3 2 4l4 9-6 7-18 25 25 25 25-18 7-6 9 4c1 1 3 2 4 2l9 4 2 9 4 30h35l5-30 1-9 9-4c2 0 4-1 5-2l9-4 7 6 25 18 25-25-18-25-6-7 4-9c1-1 2-3 2-4l4-9 9-2 30-4v-36l-30-4zm-409 96v208c0 13 11 24 24 24h304c13 0 24-11 24-24v-120h16v120c0 22-18 40-40 40h-304c-22 0-40-18-40-40v-208c0-22 18-40 40-40h136v16h-136c-13 0-24 11-24 24zm48 184h64v-16h-64zm32-48h224v-16h-224zm0-48h160v-16h-160zm0-48h80v-16h-80z"/><glyph unicode="" d="M409 423l-51 50c-12 13-37 23-54 23h-192c-18 0-32-14-32-32v-432c0-18 14-32 32-32h288c18 0 32 14 32 32v336c0 18-10 42-23 55zm-11-12c6-6 12-17 15-27h-77c-9 0-16 7-16 16v77c10-3 21-9 27-15zm18-379c0-9-7-16-16-16h-288c-9 0-16 7-16 16v432c0 9 7 16 16 16h192v-80c0-18 14-32 32-32h80zm-240 243l-38 49c-3 3-2 8 1 11 4 3 9 2 11-1l26-33 58 73c2 4 7 5 11 2 3-3 4-8 1-11zm0-112l-38 49c-3 3-2 8 1 11 4 3 9 2 11-1l26-33 58 73c2 4 7 5 11 2 3-3 4-8 1-11zm0-112l-38 49c-3 3-2 8 1 11 4 3 9 2 11-1l26-33 58 73c2 4 7 5 11 2 3-3 4-8 1-11zm96 269h96v-16h-96zm0-112h96v-16h-96zm0-112h96v-16h-96z"/><glyph unicode="" d="M416 320c10 0 16-6 16-16v-224c0-10-6-16-16-16h-160c-10 0-16 6-16 16v224c0 10 6 16 16 16h160m0 16h-160c-18 0-32-14-32-32v-224c0-18 14-32 32-32h160c18 0 32 14 32 32v224c0 18-14 32-32 32zm-128-64h96v-16h-96zm0-48h96v-16h-96zm0-48h96v-16h-96zm0-48h96v-16h-96zm-104 336c-75 0-136-21-136-48v-224c0-27 61-48 136-48h24v16h-24c-78 0-120 22-120 32v48c27-16 75-24 120-24 8 0 16 0 24 2v16h-24c-61 0-104 12-120 27v59c27-16 75-24 120-24 8 0 16 0 24 2v6c0 3 0 6 2 10-8 0-16-2-26-2-61 0-104 13-120 27v55c22-16 69-26 120-26s98 10 120 26v-42h16v64c0 27-61 48-136 48zm0-80c-78 0-120 22-120 32s42 32 120 32 120-22 120-32-42-32-120-32z"/><glyph unicode="" d="M192 225l26-16-13 54-53-13 26-16-40-67c-6-9-7-19-3-27 5-8 14-12 25-12h48v16h-48c-5 0-9 1-11 4-1 2 0 7 3 11zm162-31l-13-9c0-1 9-12 18-27 3-4 4-8 3-11-1-2-5-3-10-3h-80v31l-39-39 39-39v31h80c15 0 21 7 24 12 4 7 3 17-3 27-10 15-18 27-19 27zm-98 131c3 0 7-2 10-7l40-68-26-16 53-13 13 54-26-16-41 67c-6 10-14 15-23 15s-17-5-23-15l-16-27 14-8 16 27c3 5 6 7 9 7zm228 98l-56 47c-6 5-19 10-28 10h-288c-9 0-22-5-28-10l-56-47c-6-6-11-17-9-26l58-349c2-9 10-16 19-16h320c9 0 17 7 19 16l58 349c2 9-3 20-9 26zm-65-373c0-1-2-2-3-2h-320c-1 0-3 1-3 2l-59 350c0 3 2 9 5 11l55 46c4 4 13 7 18 7h288c5 0 14-3 18-7l55-46c3-2 5-8 5-11zm13 350h-352c-4 0-8-4-8-8s4-8 8-8h352c4 0 8 4 8 8s-4 8-8 8z"/><glyph unicode="" d="M256 502c68 0 126-24 174-72s72-106 72-174-24-125-72-174c-48-48-106-72-174-72s-125 24-174 72c-48 49-72 106-72 174s24 126 72 174c49 48 106 72 174 72m100-201c11 8 18 16 24 25-11-4-20-7-28-8 10 7 18 15 22 27-10-5-21-9-31-11-10 9-21 14-36 14-13 0-25-5-34-14-9-10-14-21-14-34 0-1 0-2 1-5v-6c-41 2-74 19-99 51-5-8-7-16-7-25 0-17 7-30 22-40-9 0-16 3-22 7v-1c0-12 3-22 10-31 8-9 17-14 29-17-6-1-10-2-13-2-4 0-7 1-9 1 7-22 22-33 45-33-17-14-37-21-60-21h-12c24-14 48-21 74-21 42 0 75 14 100 42 26 28 38 60 38 96v6"/><glyph unicode="" d="M232 326c3-11 3-20 0-30-3-9-8-14-16-16h-5c-14 0-25 10-31 30-2 11-1 20 1 28 4 8 9 13 16 15 0 1 2 1 5 1 15 0 25-9 30-28m24 176c68 0 126-24 174-72s72-106 72-174-24-125-72-174c-48-48-106-72-174-72s-125 24-174 72c-48 49-72 106-72 174s24 126 72 174c49 48 106 72 174 72m-14-351c20 10 30 26 30 50 0 15-8 30-26 47-9 7-14 13-14 16 0 4 4 9 11 14 11 11 17 25 17 40 0 20-6 34-18 40 0 1 2 2 5 2h5c14 2 20 5 20 9v2h-59c-4 0-10-1-17-2-7-2-16-7-27-17-11-9-16-22-16-39 0-19 6-32 19-41 8-5 17-8 29-8h3c-2-8 1-17 8-25h-1c-47 0-71-16-71-49 0-13 5-24 15-32 9-8 18-12 25-14 7-1 14-2 20-2h4c13 0 26 3 38 9m130 106v25h-39v39h-25v-39h-39v-25h39v-39h25v39h39m-161-30c11 0 20-3 27-8 6-6 10-14 11-22 1-9-3-17-10-23s-16-9-28-10c-12-2-22 0-31 5-9 6-13 13-14 21 0 9 4 18 11 25s17 11 30 12h4"/><glyph unicode="" d="M256 502c68 0 126-24 174-72s72-106 72-174-24-125-72-174c-48-48-106-72-174-72s-126 24-174 72c-48 49-72 106-72 174s24 126 72 174 106 72 174 72m58-169v40h-36c-16 0-28-6-38-17-11-11-16-25-16-42v-22h-39v-38h39v-114h44v114h46v38h-46v26c0 10 3 15 10 15h36"/><glyph unicode="" d="M256 502c68 0 126-24 174-72s72-106 72-174-24-125-72-174c-48-48-106-72-174-72s-125 24-174 72c-48 49-72 106-72 174s24 126 72 174c49 48 106 72 174 72m-60-347v159h-50v-159h50m-25 180c18 0 27 8 27 24 0 17-9 25-27 25-7 0-14-2-19-7s-8-11-8-18c0-16 9-24 27-24m207-180v94c0 22-5 40-16 52-11 11-24 17-41 17-23 0-39-8-50-25h-1l-3 21h-43c1-9 1-26 1-51v-108h50v92c0 6 1 10 3 12 4 13 12 20 25 20 16 0 25-12 25-35v-89h50"/><glyph unicode="" d="M401 149c-1 12-10 24-21 28l-62 22c-6 2-12 9-13 15l-5 30c22 18 36 47 36 80 0 54-36 96-80 96s-80-42-80-96c0-33 14-62 36-80l-5-31c-1-5-7-13-13-15l-62-22c-11-4-20-17-21-29l-3-50 16-1 3 52c0 6 5 12 11 14l62 22c11 4 21 16 23 27l4 24c9-4 19-6 29-6s20 2 29 6l5-24c1-12 12-24 23-28l61-22c6-2 11-9 11-15l3-50 16 1zm-210 175c0 45 29 82 65 82s65-37 65-82c0-44-29-81-65-81s-65 37-65 81z"/><glyph unicode="" d="M248 413c-23 0-136-2-136-48v-230s33-36 136-36 136 36 136 36v230c0 46-113 48-136 48zm120-271c-17-14-59-27-120-27s-103 13-120 27v54c23-15 68-25 120-25s97 10 120 25zm0 73c-17-13-59-27-120-27s-103 14-120 27v54c23-15 68-25 120-25s97 10 120 25zm0 74c-17-14-59-28-120-28s-103 14-120 28v54c23-15 68-26 120-26s97 11 120 26zm-120 44c-66 0-120 15-120 32 0 18 54 32 120 32s120-14 120-32c0-17-54-32-120-32z"/><glyph unicode="" d="M208 336c0-18-14-32-32-32s-32 14-32 32 14 32 32 32 32-14 32-32zm73-53c4 11 7 24 7 37 0 53-43 96-96 96s-96-43-96-96 43-96 96-96c10 0 19 1 28 4l36-36h32v-32h32v-32h32v-32h64v64zm119-171h-32v16c0 9-7 16-16 16h-16v16c0 9-7 16-16 16h-16v16c0 9-7 16-16 16h-25l-39 39c-10-5-21-7-32-7-44 0-80 36-80 80s36 80 80 80 80-36 80-80c0-15-4-29-11-41l139-126z"/><glyph unicode="" d="M416 384h-320c-18 0-32-14-32-32v-192c0-18 14-32 32-32h320c18 0 32 14 32 32v192c0 18-14 32-32 32zm-320-16h320c9 0 16-7 16-16v-6l-154-103c-12-8-32-8-44 0l-154 103v6c0 9 7 16 16 16zm336-42v-140l-106 70zm-246-70l-106-70v140zm230-112h-320c-9 0-16 7-16 16v6l120 80 25-16c9-6 20-9 31-9s22 3 31 9l25 16 120-80v-6c0-9-7-16-16-16z"/><glyph unicode="" d="M352 208c-27 0-48-21-48-48s21-48 48-48 48 21 48 48-21 48-48 48zm0-80c-18 0-32 14-32 32s14 32 32 32 32-14 32-32-14-32-32-32zm99 73zm-58 58zm-85-1zm188-130v64l-45 9 25 38-45 45-38-25c1 0-9 45-9 45h-64l-12-46c1 0-35 26-35 26l-45-45s25-37 25-38-45-9-45-9v-64s45-8 45-9-25-38-25-38l45-45s37 25 38 25 9-45 9-45h64s10 45 9 45l38-25 45 45-25 38zm-55 8l-10-22 24-32-25-25-32 24-22-10-6-39h-36l-6 39-22 10-32-24-25 25 24 32-10 22-39 6v36l39 6 10 22-24 32 25 25 32-24 22 10 6 39h35l6-39 23-10 32 24 25-25-24-32 10-22 39-6v-36zm10-17zm-58-58zm-140 58zm58-58zm-96 211h-157c-9 0-10 7-10 16v128h256v-87h16v119c0 18-14 32-32 32h-224c-18 0-32-14-32-32v-160c0-18 14-32 32-32h151zm-167 176c0 9 1 16 10 16h224c9 0 22-7 22-16v-16h-256z"/><glyph unicode="" d="M240 464c0 18-14 32-32 32h-160c-18 0-32-14-32-32v-160c0-18 14-32 32-32h160c18 0 32 14 32 32zm-16-160c0-9-9-16-18-16h-160c-9 0-14 7-14 16v128h192zm-192 144v16c0 9 5 16 14 16h160c9 0 18-7 18-16v-16zm432-208h-160c-18 0-32-14-32-32v-160c0-18 14-32 32-32h160c18 0 32 14 32 32v160c0 18-14 32-32 32zm16-192c0-9-9-16-18-16h-160c-9 0-14 7-14 16v160c0 9 5 16 14 16h160c9 0 18-7 18-16zm-16 448h-160c-18 0-32-14-32-32v-160c0-18 14-32 32-32h160c18 0 32 14 32 32v160c0 18-14 32-32 32zm16-192c0-9-9-16-18-16h-160c-9 0-14 7-14 16v160c0 9 5 16 14 16h160c9 0 18-7 18-16zm-272-64h-160c-18 0-32-14-32-32v-160c0-18 14-32 32-32h160c18 0 32 14 32 32v160c0 18-14 32-32 32zm16-192c0-9-9-16-18-16h-160c-9 0-14 7-14 16v160c0 9 5 16 14 16h160c9 0 18-7 18-16zm-160 352h32v-32h-32zm48 0h32v-32h-32zm48 0h32v-32h-32zm-96-48h32v-32h-32zm48 0h32v-32h-32zm48 0h32v-32h-32zm224-160c-35 0-64-21-64-48 0-14 8-27 21-36l-13-44 48 32v1c2-1 5-1 8-1 35 0 64 21 64 48s-29 48-64 48zm-224-32c0-18-14-32-32-32s-32 14-32 32 14 32 32 32 32-14 32-32zm-32-48c-24 0-44-19-55-48h110c-11 29-31 48-55 48zm192 245h32v-37h-32zm48 48h32v-85h-32zm48 48h32v-133h-32z"/><glyph unicode="" d="M336 336c79 0 144-65 144-144s-65-144-144-144-144 65-144 144 65 144 144 144m0 16c-88 0-160-72-160-160s72-160 160-160 160 72 160 160-72 160-160 160zm-8-246l-69 70c-4 3-4 9 0 12 3 4 9 4 12 0l53-53 75 133c3 4 8 5 13 3 4-3 5-8 3-12zm-149 166h-115c-9 0-16 7-16 16v128h256v-51c5 1 11 2 16 2v81c0 18-14 32-32 32h-224c-18 0-32-14-32-32v-160c0-18 14-32 32-32h108l7 16zm-131 176c0 9 7 16 16 16h224c9 0 16-7 16-16v-16h-256z"/><glyph unicode="" d="M464 320c9 0 16-7 16-16v-224c0-9-7-16-16-16h-192c-9 0-16 7-16 16v224c0 9 7 16 16 16h192m0 16h-192c-18 0-32-14-32-32v-224c0-18 14-32 32-32h192c18 0 32 14 32 32v224c0 18-14 32-32 32zm-176-48h160v-32h-160zm16-64h32v-32h-32zm48 0h32v-32h-32zm48 0h32v-32h-32zm-96-48h32v-32h-32zm48 0h32v-32h-32zm48 0h32v-32h-32zm-96-48h32v-32h-32zm48 0h32v-32h-32zm48 0h32v-32h-32zm-176 128h-162c-9 0-14 7-14 16v128h256v-48h16v80c0 18-14 32-32 32h-224c-18 0-32-14-32-32v-160c0-18 14-32 32-32h160zm-176 176c0 9 5 16 14 16h224c9 0 18-7 18-16v-16h-256z"/><glyph unicode="" d="M496 88c0-22-18-40-40-40h-272c-22 0-40 18-40 40v144c0 22 18 40 40 40h272c22 0 40-18 40-40zm-16 144c0 13-11 24-24 24h-272c-13 0-24-11-24-24v-144c0-13 11-24 24-24h272c13 0 24 11 24 24zm-224-24v16h-48v-16h16v-96h-16v-16h48v16h-16v96zm-128 32h-82c-9 0-14 7-14 16v128h256v-96h16v128c0 18-14 32-32 32h-224c-18 0-32-14-32-32v-160c0-18 14-32 32-32h80zm-96 176c0 9 5 16 14 16h224c9 0 18-7 18-16v-16h-256z"/><glyph unicode="" d="M337 240c38 0 68-30 68-68v-6l-1-2-2-22 21 4 8 1c27 0 49-22 49-50 0-27-22-49-49-49h-290c-22 0-40 18-40 40s18 40 40 40c5 0 9-1 14-3l20-7 2 21c2 26 23 45 48 45 8 0 16-2 23-6l19-10 5 20c7 31 34 52 65 52m0 16c-39 0-72-27-81-64-9 5-20 8-31 8-34 0-61-26-64-60-6 3-13 4-20 4-31 0-56-25-56-56s25-56 56-56h290c36 0 65 29 65 65s-29 66-65 66l-11-1c1 3 1 6 1 10 0 46-37 84-84 84zm-33 192c0 18-14 32-32 32h-224c-18 0-32-14-32-32v-160c0-18 14-32 32-32h224c18 0 32 14 32 32zm-16-160c0-9-9-16-18-16h-224c-9 0-14 7-14 16v128h256zm-256 144v16c0 9 5 16 14 16h224c9 0 18-7 18-16v-16z"/><glyph unicode="" d="M247 16c-64 2-123 29-167 76-43 47-66 108-64 172 2 59 25 113 64 155v-67h16v96h-96v-16h71c-44-45-69-104-71-167-2-68 22-134 69-184 46-50 110-81 178-81zm17 480c64-2 124-29 168-76 43-47 66-108 64-172-2-59-25-113-64-155v67h-16v-96h96v16h-70c43 45 68 104 70 167 2 68-22 134-69 184-46 50-110 78-178 81zm136-160c0 18-14 32-32 32h-224c-18 0-32-14-32-32v-160c0-18 14-32 32-32h224c18 0 32 14 32 32zm-16-160c0-9-9-16-18-16h-224c-9 0-14 7-14 16v128h256zm-256 144v16c0 9 5 16 14 16h224c9 0 18-7 18-16v-16z"/><glyph unicode="" d="M494 46l-153 153c27 33 43 75 43 121 0 106-86 192-192 192s-192-86-192-192 86-192 192-192c48 0 93 18 126 48l153-153c3-3 7-5 11-5s8 2 12 5c6 6 6 16 0 23zm-462 274c0 88 72 160 160 160s160-72 160-160-72-160-160-160-160 72-160 160z"/><glyph unicode="" d="M256 384l-96-96h192zm0-256l96 96h-192zm-224 320h448c9 0 16 7 16 16s-7 16-16 16h-448c-9 0-16-7-16-16s7-16 16-16zm448-384h-448c-9 0-16-7-16-16s7-16 16-16h448c9 0 16 7 16 16s-7 16-16 16z"/><glyph unicode="" d="M256 352c-53 0-96-43-96-96s43-96 96-96 96 43 96 96-43 96-96 96zm0-160c-35 0-64 29-64 64s29 64 64 64 64-29 64-64-29-64-64-64zm193 40c-7 6-13 16-13 24 0 7 6 18 13 24l38 31c13 10 17 28 9 42l-36 62c-6 10-17 16-28 16-4 0-8-1-12-3l-47-17c-4-1-8-2-12-2-6 0-11 1-15 3-6 4-13 14-14 23l-8 49c-2 16-16 28-32 28h-72c-16 0-30-12-31-28l-9-49c-1-9-8-19-14-23-4-2-9-3-15-3-4 0-8 0-12 2l-47 17c-4 2-8 3-12 3-11 0-22-6-28-16l-36-62c-8-14-4-32 9-41l38-32c7-6 13-16 13-24 0-7-6-18-13-24l-38-32c-13-9-17-27-9-41l36-62c6-10 17-16 28-16 4 0 8 1 12 3l47 17c4 1 8 2 12 2 6 0 11-1 15-3 6-4 13-14 14-23l8-49c2-16 16-28 32-28h72c16 0 30 12 31 28l9 49c1 9 8 19 14 23 4 2 9 3 15 3 4 0 8 0 12-2l47-17c4-2 8-3 12-3 11 0 22 6 28 16l36 62c8 14 4 32-9 41zm-17-119v-1c-7 4-15 7-24 10l-24 9c-7 3-15 4-23 4s-20-1-31-7c-15-9-27-28-30-46l-8-50-72 1-8 50c-3 18-16 36-30 45-11 6-23 7-31 7s-16-1-23-4l-48-18-35 63 39 31c14 12 24 32 24 49s-10 37-24 49l-40 32 36 62v1c7-4 15-7 24-10l24-9c7-3 15-4 23-4s20 1 31 7c15 9 27 28 30 46l8 50h72v-1l8-50c3-18 16-36 30-45 11-6 23-7 31-7s16 1 23 4l48 18 35-63-39-31c-14-12-24-32-24-49s10-37 24-49l40-32z"/><glyph unicode="" d="M384 288h-32v64c0 53-43 96-96 96s-96-43-96-96v-64h-32c-18 0-32-14-32-32v-192c0-18 14-32 32-32h256c18 0 32 14 32 32v192c0 18-14 32-32 32zm-192 64c0 35 29 64 64 64s64-29 64-64v-64h-128zm192-288h-256v192h256z"/><glyph unicode="" d="M439 329l-142 142c-6 6-14 9-22 9h-179c-18 0-32-14-32-32v-384c0-18 14-32 32-32h320c18 0 32 14 32 32v243c0 8-3 16-9 22zm-36-9h-115v118zm13-256h-320v384h160v-128c0-18 14-32 32-32h128z"/><glyph unicode="" d="M288 480c-9 0-16-7-16-16s7-16 16-16h137l-132-133c-7-6-7-16 0-22 3-3 7-5 11-5s8 2 11 5l133 132v-137c0-9 7-16 16-16s16 7 16 16v192zm-64-416h-137l132 133c7 6 7 16 0 22-6 7-16 7-22 0l-133-132v137c0 9-7 16-16 16s-16-7-16-16v-192h192c9 0 16 7 16 16s-7 16-16 16z"/><glyph unicode="" d="M491 43l-137 137c29 34 46 77 46 124 0 106-86 192-192 192s-192-86-192-192 86-192 192-192c47 0 90 17 124 46l137-137c3-3 7-5 11-5s8 2 11 5c7 6 7 16 0 22zm-443 261c0 88 72 160 160 160s160-72 160-160-72-160-160-160-160 72-160 160z"/><glyph unicode="" d="M448 192v-160h-160v160h160m32 32h-224v-224h224zm-368-224c-62 0-112 50-112 112s50 112 112 112 112-50 112-112-50-112-112-112zm0 192c-44 0-80-36-80-80s36-80 80-80 80 36 80 80-36 80-80 80zm292 64h-296l148 256zm-240 32h184l-92 160z"/><glyph unicode="" d="M416 288h-160v160c0 9-7 16-16 16s-16-7-16-16v-160h-160c-9 0-16-7-16-16s7-16 16-16h160v-160c0-9 7-16 16-16s16 7 16 16v160h160c9 0 16 7 16 16s-7 16-16 16z"/><glyph unicode="" d="M192 416h256c9 0 16 7 16 16s-7 16-16 16h-256c-9 0-16-7-16-16s7-16 16-16zm256-128h-256c-9 0-16-7-16-16s7-16 16-16h256c9 0 16 7 16 16s-7 16-16 16zm0-160h-256c-9 0-16-7-16-16s7-16 16-16h256c9 0 16 7 16 16s-7 16-16 16zm-352 304c0-27-21-48-48-48s-48 21-48 48 21 48 48 48 48-21 48-48zm0-160c0-27-21-48-48-48s-48 21-48 48 21 48 48 48 48-21 48-48zm0-160c0-27-21-48-48-48s-48 21-48 48 21 48 48 48 48-21 48-48z"/><glyph unicode="" d="M481 433l-48 48c-19 19-52 19-71 0l-255-255c-6-6-10-13-12-18l-59-130c-5-10-4-21 2-31 6-9 16-14 27-14 4 0 9 1 13 2l128 59c7 3 14 7 20 13l255 255c20 20 20 52 0 71zm-340-219l184 185 74-74-185-184zm-76-149l56 123 67-67zm394 320l-37-37-74 74 37 37c3 3 8 5 13 5 4 0 9-2 12-5l49-49c7-7 7-18 0-25z"/><glyph unicode="" d="M352 480h-192l96-96zm-192-416h192l-96 96zm-128 224h448c9 0 16 7 16 16s-7 16-16 16h-448c-9 0-16-7-16-16s7-16 16-16zm448-32h-448c-9 0-16-7-16-16s7-16 16-16h448c9 0 16 7 16 16s-7 16-16 16z"/><glyph unicode="" d="M192 128c-4 0-8 2-11 5l-96 96c-7 6-7 16 0 22 6 7 16 7 22 0l85-84 213 212c6 7 16 7 22 0 7-6 7-16 0-22l-224-224c-3-3-7-5-11-5z"/><glyph unicode="" d="M480 480h-448c-9 0-16-7-16-16s7-16 16-16h448c9 0 16 7 16 16s-7 16-16 16zm0-96h-448c-9 0-16-7-16-16s7-16 16-16h448c9 0 16 7 16 16s-7 16-16 16zm0-96h-448c-9 0-16-7-16-16s7-16 16-16h448c9 0 16 7 16 16s-7 16-16 16zm0-96h-448c-9 0-16-7-16-16s7-16 16-16h448c9 0 16 7 16 16s-7 16-16 16zm0-96h-448c-9 0-16-7-16-16s7-16 16-16h448c9 0 16 7 16 16s-7 16-16 16z"/><glyph unicode="" d="M480 384h-448c-9 0-16-7-16-16s7-16 16-16h448c9 0 16 7 16 16s-7 16-16 16zm0-96h-448c-9 0-16-7-16-16s7-16 16-16h448c9 0 16 7 16 16s-7 16-16 16zm0-96h-448c-9 0-16-7-16-16s7-16 16-16h448c9 0 16 7 16 16s-7 16-16 16z"/><glyph unicode="" d="M384 288h-192v96c0 53-43 96-96 96s-96-43-96-96v-112c0-9 7-16 16-16s16 7 16 16v112c0 35 29 64 64 64s64-29 64-64v-96h-32c-18 0-32-14-32-32v-192c0-18 14-32 32-32h256c18 0 32 14 32 32v192c0 18-14 32-32 32zm0-224h-256v192h256z"/><glyph unicode="" d="M448 448h-384c-18 0-32-14-32-32v-320c0-18 14-32 32-32h384c18 0 32 14 32 32v320c0 18-14 32-32 32zm0-288l-105 105c-13 13-33 13-46 0l-169-169h-64v320h384zm-224 144c0-27-21-48-48-48s-48 21-48 48 21 48 48 48 48-21 48-48z"/><glyph unicode="" d="M192 480h-128c-18 0-32-14-32-32v-128c0-18 14-32 32-32h128c18 0 32 14 32 32v128c0 18-14 32-32 32zm0-160h-128v128h128zm256 160h-128c-18 0-32-14-32-32v-128c0-18 14-32 32-32h128c18 0 32 14 32 32v128c0 18-14 32-32 32zm0-160h-128v128h128zm-256-96h-128c-18 0-32-14-32-32v-128c0-18 14-32 32-32h128c18 0 32 14 32 32v128c0 18-14 32-32 32zm0-160h-128v128h128zm256 160h-128c-18 0-32-14-32-32v-128c0-18 14-32 32-32h128c18 0 32 14 32 32v128c0 18-14 32-32 32zm0-160h-128v128h128z"/><glyph unicode="" d="M491 43l-137 137c29 34 46 77 46 124 0 106-86 192-192 192s-192-86-192-192 86-192 192-192c47 0 90 17 124 46l137-137c3-3 7-5 11-5s8 2 11 5c7 6 7 16 0 22zm-443 261c0 88 72 160 160 160s160-72 160-160-72-160-160-160-160 72-160 160zm248 16h-72v72c0 9-7 16-16 16s-16-7-16-16v-72h-72c-9 0-16-7-16-16s7-16 16-16h72v-72c0-9 7-16 16-16s16 7 16 16v72h72c9 0 16 7 16 16s-7 16-16 16z"/><glyph unicode="" d="M491 43l-137 137c29 34 46 77 46 124 0 106-86 192-192 192s-192-86-192-192 86-192 192-192c47 0 90 17 124 46l137-137c3-3 7-5 11-5s8 2 11 5c7 6 7 16 0 22zm-443 261c0 88 72 160 160 160s160-72 160-160-72-160-160-160-160 72-160 160zm248 16h-176c-9 0-16-7-16-16s7-16 16-16h176c9 0 16 7 16 16s-7 16-16 16z"/><glyph unicode="" d="M416 480h-352c-18 0-32-14-32-32v-352c0-18 14-32 32-32h352c18 0 32 14 32 32v352c0 18-14 32-32 32zm-352-384v352h96v-352zm128 0v352h96v-352zm224 0h-96v352h96z"/><glyph unicode="" d="M432 480h-352c-26 0-48-22-48-48v-352c0-26 22-48 48-48h352c26 0 48 22 48 48v352c0 26-22 48-48 48zm16-400c0-9-7-16-16-16h-352c-9 0-16 7-16 16v352c0 9 7 16 16 16h352c9 0 16-7 16-16zm-91 283l-149-148-53 52c-6 7-16 7-22 0-7-6-7-16 0-22l64-64c3-3 7-5 11-5s8 2 11 5l160 160c7 6 7 16 0 22-6 7-16 7-22 0z"/><glyph unicode="" d="M363 411c-6 7-16 7-22 0-7-6-7-16 0-22l100-101h-370l100 101c7 6 7 16 0 22-6 7-16 7-22 0l-140-139 140-139c3-3 7-5 11-5s8 2 11 5c7 6 7 16 0 22l-100 101h370l-100-101c-7-6-7-16 0-22 3-3 7-5 11-5s8 2 11 5l140 139z"/><glyph unicode="" d="M332 362c-31 42-60 81-60 118 0 9-7 16-16 16s-16-7-16-16c0-37-29-76-60-118-39-53-84-113-84-190 0-86 72-156 160-156s160 70 160 156c0 77-45 137-84 190zm-76-314c-71 0-128 56-128 124 0 66 40 120 78 171 19 26 37 51 50 76 13-25 31-50 50-76 38-51 78-105 78-171 0-68-57-124-128-124z"/><glyph unicode="" d="M416 480h-352c-18 0-32-14-32-32v-352c0-18 14-32 32-32h352c18 0 32 14 32 32v352c0 18-14 32-32 32zm0-384h-352v96h352zm0 128h-352v96h352zm0 128h-352v96h352z"/><glyph unicode="" d="M416 480h-352c-18 0-32-14-32-32v-352c0-18 14-32 32-32h352c18 0 32 14 32 32v352c0 18-14 32-32 32zm-352-32h160v-96h-160zm0-128h160v-96h-160zm0-224v96h160v-96zm352 0h-160v96h160zm0 128h-160v96h160zm0 128h-160v96h160z"/><glyph unicode="" d="M240 496c-123 0-224-100-224-224s101-224 224-224 224 100 224 224-101 224-224 224zm0-416c-106 0-192 86-192 192s86 192 192 192 192-86 192-192-86-192-192-192zm96 208h-80v112c0 9-7 16-16 16s-16-7-16-16v-144h112c9 0 16 7 16 16s-7 16-16 16z"/><glyph unicode="" d="M448 352h-96v96c0 18-14 32-32 32h-256c-18 0-32-14-32-32v-256c0-18 14-32 32-32h96v-96c0-18 14-32 32-32h256c18 0 32 14 32 32v256c0 18-14 32-32 32zm-384-160v256h256v-96h-128c-18 0-32-14-32-32v-128zm256 128v-128h-128v128zm128-256h-256v96h128c18 0 32 14 32 32v128h96z"/><glyph unicode="" d="M352 480h-224c-18 0-32-14-32-32v-352c0-18 14-32 32-32h224c18 0 32 14 32 32v352c0 18-14 32-32 32zm0-384h-224v96h224zm0 128h-224v96h224zm0 128h-224v96h224z"/><glyph unicode="" d="M384 480h-288c-18 0-32-14-32-32v-352c0-18 14-32 32-32h288c18 0 32 14 32 32v352c0 18-14 32-32 32zm-288-384v352h128v-352zm288 0h-128v352h128z"/><glyph unicode="" d="M263 256l132 133c7 6 7 16 0 22-6 7-16 7-22 0l-133-132-133 132c-6 7-16 7-22 0-7-6-7-16 0-22l132-133-132-133c-7-6-7-16 0-22 3-3 7-5 11-5s8 2 11 5l133 132 133-132c3-3 7-5 11-5s8 2 11 5c7 6 7 16 0 22z"/><glyph unicode="" d="M287 277c-1 18-13 35-34 46-12 6-26 11-42 13 2 6 3 12 4 18 0 4-2 8-7 9-4 1-8-2-9-7-1-6-2-12-4-18h-20c-23-1-44-4-63-9v87h112c4 0 8 4 8 8s-4 8-8 8h-112v56c0 4-4 8-8 8s-8-4-8-8v-56h-64c-4 0-8-4-8-8s4-8 8-8h64v-92c-48-16-77-44-76-70 1-13 8-23 22-28 13-6 28-6 39-6 61 2 106 38 126 101 14-2 28-6 38-12 16-9 25-20 26-33 1-27-40-50-92-52-4 0-8-4-8-8 0-5 4-8 8-8h1c63 2 108 31 107 69zm-191-39c-5-1-10-2-16-2-12 0-24 1-32 4-12 5-12 12-12 14 0 17 21 39 60 54zm16 3v72c18 5 40 8 64 9h14c-14-42-42-70-78-81zm379-198l-118 256c-3 6-12 6-15 0l-118-256c-2-4 0-8 4-10s9 0 11 4l35 75h152l35-75c1-3 4-5 7-5 1 0 2 0 3 1 4 2 6 6 4 10zm-194 85l69 149 68-149z"/><glyph unicode="" d="M448 464h-384c-18 0-32-14-32-32v-352c0-18 14-32 32-32h384c18 0 32 14 32 32v352c0 18-14 32-32 32zm16-384c0-9-7-16-16-16h-384c-9 0-16 7-16 16v160h110l43 115 112-256 53 141h98zm0 176h-110l-43-115-112 256-53-141h-98v176c0 9 7 16 16 16h384c9 0 16-7 16-16z"/><glyph unicode="" d="M464 224h-48l-16-16h64c9 0 16-7 16-16v-128c0-9-7-16-16-16h-400c-9 0-16 7-16 16v128c0 9 7 16 16 16h64l-16 16h-48c-18 0-32-14-32-32v-128c0-18 14-32 32-32h400c18 0 32 14 32 32v128c0 18-14 32-32 32zm-313 41l113-113 113 113c3 3 3 8 0 11-3 4-8 4-11 0l-94-93v305c0 4-4 8-8 8s-8-4-8-8v-305l-94 93c-3 4-8 4-11 0-3-3-3-8 0-11z"/><glyph unicode="" d="M448 432c0 35-86 64-192 64s-192-29-192-64v-339c0-35 85-62 191-62 105 0 193 26 193 61zm-368-141c35-23 105-35 175-35s141 12 177 35v-93c-22-20-88-38-177-38s-153 18-175 39zm176 189c114 0 176-32 176-48s-62-48-176-48-176 32-176 48 62 48 176 48zm0-112c79 0 146 16 176 39v-97c-22-20-88-38-177-38s-153 18-175 39v96c30-23 97-39 176-39zm-1-321c-115 0-175 30-175 46v86c35-23 105-35 175-35s141 12 177 35v-87c0-15-63-45-177-45z"/><glyph unicode="" d="M160 461v-160h16v160c0 9 7 16 16 16h256c9 0 16-7 16-16v-400c0-9-7-16-16-16h-256c-9 0-16 7-16 16v160h-16v-160c0-18 14-32 32-32h256c18 0 32 14 32 32v400c0 17-14 32-32 32h-256c-18 0-32-15-32-32zm135-313l113 113-113 113c-3 3-8 3-11 0-4-3-4-8 0-11l93-94h-321c-4 0-8-4-8-8 0-5 4-8 8-8h321l-93-94c-4-3-4-8 0-11 3-3 8-3 11 0z"/><glyph unicode="" d="M424 384h-152v93c0 13-11 24-24 24-4 0-8-1-12-3l-176-99c-7-5-12-13-12-21v-338c0-8 4-15 10-19v-1c4-2 9-4 14-4h352c13 0 24 11 24 24v320c0 13-11 24-24 24zm-360-6c0 3 2 5 4 7l176 99 4 1c4 0 8-3 8-8v-327c0-3-2-5-4-7l-188-105v2zm368-338c0-4-4-8-8-8h-337l173 97c7 5 12 13 12 21v218h152c4 0 8-4 8-8zm-64 136h-48c-4 0-8-4-8-8s4-8 8-8h48c4 0 8 4 8 8s-4 8-8 8zm0-64h-48c-4 0-8-4-8-8s4-8 8-8h48c4 0 8 4 8 8s-4 8-8 8zm0 128h-48c-4 0-8-4-8-8s4-8 8-8h48c4 0 8 4 8 8s-4 8-8 8zm0 64h-48c-4 0-8-4-8-8s4-8 8-8h48c4 0 8 4 8 8s-4 8-8 8z"/><glyph unicode="" d="M472 117l-103 102c-37 30-64 70-79 114l-32 93c-13 34-43 51-70 64-47 22-112 5-155-37-2-2-3-5-2-7 0-3 2-5 4-6l115-53c4-3 6-8 4-12l-21-46c-2-4-8-6-12-4l-92 42c-2 2-5 1-7 0-3-1-4-4-4-7-2-65 24-112 75-136 18-8 38-11 58-14 18-2 35-4 49-11 17-8 32-17 45-28l154-145c11-9 24-13 37-13 19 0 36 8 47 23 18 24 13 61-11 81zm-2-71c-8-11-20-17-34-17-9 0-19 3-26 9l-154 145c-14 12-31 22-49 31-17 7-36 10-54 12-18 3-37 5-54 13-50 23-63 70-65 109l80-38c12-5 28 0 33 12l22 46c5 12 0 27-13 33l-103 48c38 33 90 44 128 26 24-11 51-27 61-55l32-92c17-47 46-89 84-121l104-102c18-15 22-42 8-59zm-20 25c0-9-7-16-16-16s-16 7-16 16 7 16 16 16 16-7 16-16z"/><glyph unicode="" d="M478 429l-49 49c-13 13-36 13-49 0l-293-293c-6-6-11-13-14-21l-54-124c-3-5-2-11 1-16 3-4 8-7 13-7 2 0 5 1 7 2l124 54c8 3 15 8 21 14l293 293c13 13 13 36 0 49zm-445-396l50 114 64-64zm141 66c-4-4-8-7-12-9l-72 72c2 4 5 8 9 12l246 246 75-75zm292 292l-34-35-76 76 35 34c4 4 8 6 14 6 5 0 10-2 13-6l48-48c8-7 8-20 0-27z"/><glyph unicode="" d="M266 366c-3-3-3-9 0-12l67-66h-189c-4 0-8-4-8-8s4-8 8-8h189l-67-66c-3-3-3-9 0-12 2-1 4-2 6-2s4 1 6 2l85 86-85 86c-3 3-9 3-12 0zm-8 98c-123 0-224-82-224-184 0-46 21-89 56-121l-26-111 111 61c25-8 54-13 83-13 124 0 224 82 224 184s-100 184-224 184zm0-352c-27 0-53 4-78 13l-7 2-6-4-79-43 17 75 3 9-7 7c-33 30-51 69-51 109 0 93 94 168 208 168 115 0 208-75 208-168s-93-168-208-168z"/><glyph unicode="" d="M184 280c0-13-11-24-24-24s-24 11-24 24 11 24 24 24 24-11 24-24zm192 0c0-13-11-24-24-24s-24 11-24 24 11 24 24 24 24-11 24-24zm-96 0c0-13-11-24-24-24s-24 11-24 24 11 24 24 24 24-11 24-24zm-24 184c-124 0-224-82-224-184 0-46 21-89 56-121l-26-111 110 61c26-8 54-13 84-13 124 0 224 82 224 184s-100 184-224 184zm0-352c-27 0-53 4-79 13l-6 2-7-4-79-43 18 75 2 9-7 7c-32 30-50 69-50 109 0 93 93 168 208 168s208-75 208-168-93-168-208-168z"/><glyph unicode="" d="M248 496c-128 0-232-104-232-232s104-232 232-232 232 104 232 232-104 232-232 232zm0-448c-119 0-216 97-216 216s97 216 216 216 216-97 216-216-97-216-216-216zm118 310l-170-171-66 67c-3 3-9 3-12 0s-3-9 0-12l78-77 182 181c3 3 3 9 0 12s-9 3-12 0z"/><glyph unicode="" d="M448 432h-384c-18 0-32-14-32-32v-288c0-18 14-32 32-32h384c18 0 32 14 32 32v288c0 18-14 32-32 32zm-384-16h384c9 0 16-7 16-16v-27l-189-164c-10-9-28-9-38 0l-189 164v27c0 9 7 16 16 16zm400-64v-201l-107 108zm-309-93l-107-108v201zm293-163h-384c-9 0-16 7-16 16v16l119 120 60-52c8-7 18-10 29-10s21 3 29 10l60 52 119-120v-16c0-9-7-16-16-16z"/><glyph unicode="" d="M373 273l-13-14c65-12 104-34 104-51 0-25-84-61-216-61s-216 36-216 61c0 17 39 39 104 51l-13 14c-64-14-107-38-107-65v-117c0-43 102-75 230-75s234 31 234 74v118c0 27-43 51-107 65zm91-183c0-21-73-58-218-58-133 0-214 34-214 59v89c34-29 118-49 216-49s182 20 216 49zm-329 239l113-113 113 113c3 3 3 8 0 11-3 4-8 4-11 0l-94-93v241c0 4-4 8-8 8s-8-4-8-8v-241l-94 93c-3 4-8 4-11 0-3-3-3-8 0-11z"/><glyph unicode="" d="M432 464h-368c-18 0-32-14-32-32v-352c0-18 14-32 32-32h368c18 0 32 14 32 32v352c0 18-14 32-32 32zm-384-32c0 9 7 16 16 16h176v-64h-192zm0-64h192v-64h-192zm0-80h192v-64h-192zm0-80h192v-64h-192zm16-144c-9 0-16 7-16 16v48h192v-64zm384 16c0-9-7-16-16-16h-176v64h192zm0 64h-192v64h192zm0 80h-192v64h192zm0 80h-192v64h192zm-192 80v64h176c9 0 16-7 16-16v-48z"/><glyph unicode="" d="M248 496c-128 0-232-104-232-232s104-232 232-232 232 104 232 232-104 232-232 232zm0-448c-119 0-216 97-216 216s97 216 216 216 216-97 216-216-97-216-216-216zm0 352c4 0 8 4 8 8v32c0 4-4 8-8 8s-8-4-8-8v-32c0-4 4-8 8-8zm0-272c-4 0-8-4-8-8v-32c0-4 4-8 8-8s8 4 8 8v32c0 4-4 8-8 8zm176 144h-32c-4 0-8-4-8-8s4-8 8-8h32c4 0 8 4 8 8s-4 8-8 8zm-320 0h-32c-4 0-8-4-8-8s4-8 8-8h32c4 0 8 4 8 8s-4 8-8 8zm263 122l-97-97c-6 5-14 7-22 7-22 0-40-18-40-40s18-40 40-40c8 0 16 2 22 7l81-81c3-3 8-3 11 0s3 8 0 11l-81 81c5 6 7 14 7 22s-2 16-7 22l97 97c3 3 3 8 0 11s-8 3-11 0zm-143-130c0 13 11 24 24 24s24-11 24-24-11-24-24-24-24 11-24 24z"/><glyph unicode="" d="M248 496c-128 0-232-104-232-232s104-232 232-232 232 104 232 232-104 232-232 232zm0-448c-119 0-216 97-216 216s97 216 216 216 216-97 216-216-97-216-216-216zm114 327c3 3 3 8 0 11s-8 3-11 0l-98-105c-3-3-8-3-11 0l-105 97c-3 3-8 3-11 0s-3-8 0-11l105-98c3-3 3-8 0-11l-97-105c-3-3-3-8 0-11s8-3 11 0l98 105c3 3 8 3 11 0l105-97c3-3 8-3 11 0s3 8 0 11l-105 98c-3 3-3 8 0 11z"/><glyph unicode="" d="M361 228c3 3 3 8 0 11l-113 113-113-113c-3-3-3-8 0-11 3-4 8-4 11 0l94 93v-289c0-4 4-8 8-8s8 4 8 8v289l94-93c3-4 8-4 11 0zm87 252h-400c-18 0-32-14-32-32v-288c0-18 14-32 32-32h144v16h-144c-9 0-16 7-16 16v240h432v-240c0-9-7-16-16-16h-144v-16h144c18 0 32 14 32 32v288c0 18-14 32-32 32zm16-64h-432v32c0 9 7 16 16 16h400c9 0 16-7 16-16z"/><glyph unicode="" d="M467 69c-3 35-26 63-57 72l-59 18c-18 6-32 23-33 43l-1 12 11 9c30 31 48 78 48 131-1 86-47 142-118 142h-4c-71 0-117-56-117-142-1-53 17-100 47-131l11-9-1-12c-1-20-15-37-33-43l-59-18c-31-9-54-37-57-72l-5-52c0-5 3-9 7-9h1c4 0 8 3 8 7l5 53c3 28 21 50 45 58l60 18c24 7 42 30 44 57v2c14-7 29-11 44-11h4c15 0 30 4 44 11v-2c2-27 20-50 44-57l60-18c25-8 42-30 45-58l5-53c0-4 4-7 8-7h1c4 0 7 4 7 9zm-211 139h-2c-21 0-41 9-58 26-28 28-44 71-44 120 1 78 39 126 102 126h4c63 0 101-48 101-126 1-48-15-92-43-120-17-17-37-26-58-26z"/><glyph unicode="" d="M503 260c-63 94-153 148-247 148s-184-54-247-148l-3-4 3-4c63-94 153-148 247-148s184 54 247 148l3 4zm-247-140c-87 0-171 49-230 136 59 87 143 136 230 136s171-49 230-136c-59-87-143-136-230-136zm0 232c-53 0-96-43-96-96s43-96 96-96 96 43 96 96-43 96-96 96zm0-176c-44 0-80 36-80 80s36 80 80 80 80-36 80-80-36-80-80-80z"/><glyph unicode="" d="M464 224h-160v-16h160c9 0 16-7 16-16v-128c0-9-7-16-16-16h-400c-9 0-16 7-16 16v128c0 9 7 16 16 16h160v16h-160c-18 0-32-14-32-32v-128c0-18 14-32 32-32h400c18 0 32 14 32 32v128c0 18-14 32-32 32zm-87 175l-113 113-113-113c-3-3-3-8 0-11 3-4 8-4 11 0l94 93v-321c0-4 4-8 8-8s8 4 8 8v321l94-93c3-4 8-4 11 0 3 3 3 8 0 11z"/><glyph unicode="" d="M464 224v-176h-176v176h176m16 16h-208v-208h208zm-344-16c49 0 88-39 88-88s-39-88-88-88-88 39-88 88 39 88 88 88m0 16c-57 0-104-47-104-104s47-104 104-104 104 47 104 104-47 104-104 104zm120 224l102-176h-204l102 176m0 32l-129-224h258z"/><glyph unicode="" d="M227 259l-26 8c-1 1-3 5-4 8l-5 23c30 19 51 56 51 99 0 62-43 112-96 112s-96-50-96-112c0-43 21-80 52-99l-5-23c-1-3-5-8-8-9l-49-15c-14-5-26-19-29-34l-9-53c-1-8 5-17 14-18h2c8 0 15 5 16 13l9 53c0 3 4 7 7 8l48 16c14 4 27 18 30 32l4 19c5-1 9-2 14-2s10 1 14 1l5-18c2-12 11-26 25-31l27-8c1-1 3-1 5-1 6 0 13 4 15 11 3 8-2 17-11 20zm-144 138c0 44 29 80 64 80s64-36 64-80-29-80-64-80-64 36-64 80zm417-322c-3 14-15 28-29 33l-49 16c-3 1-7 6-8 9l-5 22c31 18 52 55 52 98 0 62-43 112-96 112s-96-50-96-112c0-43 21-80 51-98l-5-22c-1-3-5-8-8-9l-48-16c-14-5-27-19-29-33l-9-53c-1-9 4-17 13-19h3c7 0 14 6 16 14l8 52c1 3 5 8 8 9l48 15c14 5 26 18 29 33l4 17c5-1 10-2 15-2s10 1 14 2l4-17c3-15 16-28 30-33l48-15c3-1 7-6 7-9l9-52c1-8 8-14 16-14h2c9 2 15 10 14 19zm-199 178c0 44 29 80 64 80s64-36 64-80-29-80-64-80-64 36-64 80z"/><glyph unicode="" d="M288 160h131l-85-85c-6-6-6-16 0-22 3-3 7-5 11-5 5 0 9 2 12 5l123 123-123 123c-7 7-17 7-23 0-6-6-6-16 0-22l85-85h-131c-124 0-224 100-224 224v16c0 9-7 16-16 16s-16-7-16-16v-16c0-141 115-256 256-256z"/><glyph unicode="" d="M235 226l13-56c2-8 8-13 16-13 1 0 2 0 3 1 9 2 14 10 12 19l-14 62c41 24 69 72 69 128 0 80-56 145-126 145s-126-65-126-145c0-56 28-104 69-128l-11-47c0-3-5-7-8-8l-76-25c-14-5-26-19-28-34l-13-76c-2-9 4-17 13-19h2c8 0 15 6 16 13l13 77c1 3 4 7 7 8l76 25c14 5 26 18 30 32l9 41c9-2 18-4 27-4s18 2 27 4zm-121 141c0 62 42 113 94 113s94-51 94-113-42-113-94-113-94 51-94 113zm391-138l-44-44c-6-6-16-6-23 0l-29 29c-6 7-6 17 0 23l44 44c-30 13-65 8-87-15-23-23-28-57-15-87l-117-118c-13-12-13-33 0-46l5-5c13-13 34-13 46 0l118 117c30-13 64-8 87 15 23 22 28 57 15 87z"/><glyph unicode="" d="M425 99c0-9-7-16-16-16s-16 7-16 16 7 16 16 16 16-7 16-16zm56 43l-142 141c27 78 0 162-67 201-24 14-54 20-82 20-44 0-85-15-98-38-4-8-2-18 6-22l90-53c8-4 11-14 6-22l-41-70c-3-5-8-8-14-8-2 0-5 0-8 2l-90 52c-2 1-5 2-8 2-6 0-11-3-14-8-22-38 12-129 74-165 23-13 49-20 75-20 20 0 40 4 59 12l139-139c12-13 29-19 46-19 16 0 33 6 46 19l23 23c25 25 25 67 0 92zm-23-69l-23-23c-6-7-14-10-23-10s-17 3-24 10l-138 138-15 15-19-8c-16-6-32-9-48-9-21 0-41 5-59 16-41 24-63 75-65 104l71-41c8-4 16-6 24-6 18 0 34 9 42 24l41 70c13 23 5 53-18 66l-71 41c13 7 33 12 57 12 25 0 48-6 66-16 52-30 75-98 53-162l-6-19 14-14 141-142c6-6 10-14 10-23s-4-17-10-23z"/><glyph unicode="" d="M490 297c9 8 4 21-7 22l-151 15-3 2-61 140c-2 5-7 8-12 8s-10-3-12-8l-61-140-3-2-151-15c-11-1-16-14-7-22l113-102c1-1 1-2 1-3l-32-148c-2-8 5-16 12-16 3 0 5 1 7 2l131 76h4l131-76c2-1 4-2 6-2 8 0 15 8 13 16l-32 148c0 1 0 2 1 3zm-122-217l-112 65-111-65 28 126-97 86 128 12 52 119 53-119 128-12-97-86z"/><glyph unicode="" d="M400 448v-371l-94 94c-9 9-21 14-34 14s-25-5-34-14l-94-94v371h256m0 32h-256c-18 0-32-14-32-32v-409c0-10 8-16 16-16 4 0 8 1 11 4l122 122c3 3 7 4 11 4s8-1 11-4l122-122c3-3 7-4 11-4 8 0 16 6 16 16v409c0 18-14 32-32 32z"/><glyph unicode="" d="M160 416c0-35-29-64-64-64s-64 29-64 64 29 64 64 64 64-29 64-64zm-112-112c-9 0-16-7-16-16v-256c0-9 7-16 16-16s16 7 16 16v256c0 9-7 16-16 16zm176 144h256c9 0 16 7 16 16s-7 16-16 16h-256c-9 0-16-7-16-16s7-16 16-16zm160-64l-128-128h112c0-115-93-208-208-208-9 0-16-7-16-16s7-16 16-16c132 0 240 108 240 240h112z"/><glyph unicode="" d="M256 498c-141 0-256-86-256-192 0-61 39-116 98-151l-13-123c-2-10 7-18 16-18 3 0 7 1 10 4l114 98c10-1 20-2 31-2 141 0 256 86 256 192s-115 192-256 192zm0-352c-9 0-18 0-28 1l-14 2-10-9-83-71 9 82 3 21-18 10c-53 31-83 76-83 124 0 88 100 160 224 160s224-72 224-160-100-160-224-160z"/><glyph unicode="" d="M448 384h-224v29c0 19-16 35-35 35h-125c-18 0-32-14-32-32v-320c0-18 14-32 32-32h384c18 0 32 14 32 32v256c0 18-14 32-32 32zm0-288h-384v320h126c2 0 2-1 2-3v-61h256z"/><glyph unicode="" d="M384 448h-288c-9 0-16 7-16 16s7 16 16 16h288c9 0 16-7 16-16s-7-16-16-16zm-280-200c-6-6-6-16 0-22 6-7 17-7 23 0l97 97v-275c0-9 7-16 16-16 4 0 8 2 11 5s5 7 5 11v275l97-97c6-7 17-7 23 0 6 6 6 16 0 22l-136 136z"/><glyph unicode="" d="M114 430l-16-16c-43-42-66-98-66-158s23-116 66-158c21-22 46-38 74-50l6-1c6 0 12 4 15 10 3 8-1 18-9 21-24 10-45 24-64 42-36 37-56 85-56 136s20 99 56 136l16 16 88-88v192h-192zm300-332c43 42 66 98 66 158s-23 116-66 158c-21 22-46 38-74 50-8 3-17-1-21-9-3-8 1-18 9-21 24-10 45-24 64-42 36-37 56-85 56-136s-20-99-56-136l-16-16-88 88v-192h192l-82 82z"/><glyph unicode="" d="M128 160h-64v192h64v32h-62c-17 0-34-17-34-34v-192c0-18 17-30 34-30h62zm96 224v-32h224v-192h-224v-32h226c18 0 30 12 30 30v192c0 17-12 34-30 34zm32-320h-64v384h64c9 0 16 7 16 16s-7 16-16 16h-160c-9 0-16-7-16-16s7-16 16-16h64v-384h-64c-9 0-16-7-16-16s7-16 16-16h160c9 0 16 7 16 16s-7 16-16 16z"/><glyph unicode="" d="M448 448h-384c-18 0-32-14-32-32v-320c0-18 14-32 32-32h384c18 0 32 14 32 32v320c0 18-14 32-32 32zm0-352h-384v224h384zm-384 256v64h384v-64z"/><glyph unicode="" d="M256 512c-141 0-256-115-256-256s115-256 256-256 256 115 256 256-115 256-256 256zm0-480c-124 0-224 100-224 224s100 224 224 224 224-100 224-224-100-224-224-224zm-96 96l224 128-224 128z"/><glyph unicode="" d="M448 480h-320c-18 0-32-14-32-32v-128h32v128h320v-320h-128v-32h128c18 0 32 14 32 32v320c0 18-14 32-32 32zm-400-240c0-9 7-16 16-16h137l-160-160c-6-6-6-16 0-23 4-3 8-4 12-4s8 1 11 4l160 160v-137c0-9 7-16 16-16s16 7 16 16v192h-192c-9 0-16-7-16-16z"/><glyph unicode="" d="M480 480h-448c-18 0-23-12-13-26l154-204c10-14 19-40 19-58v-160c0-13 7-21 17-21 4 0 8 1 12 3l70 36c16 8 29 28 29 46v96c0 18 9 44 19 58l154 204c10 14 5 26-13 26zm-166-211c-15-20-26-52-26-77v-96c0-5-6-15-11-18l-53-26v140c0 25-11 57-26 77l-134 179h384z"/><glyph unicode="" d="M352 219v-155h-288v320h169l34 32h-203c-18 0-32-14-32-32v-320c0-18 14-32 32-32h288c18 0 32 14 32 32v185zm-114-16c4 2 7 4 10 7l222 209c13 12 13 33 0 46l-5 5c-13 13-34 13-46 0l-222-208c-3-3-6-7-8-12l-24-63c-2-5 3-10 8-8z"/><glyph unicode="" d="M435 433c-42 43-99 66-158 66-60 0-117-23-159-66-42-42-66-98-66-158s24-116 66-158l15-16-69-69h160v160l-68-68-15 15c-37 37-57 85-57 136s20 100 57 136c36 36 84 56 135 56 52 0 100-20 136-56 37-36 56-85 56-136s-19-99-56-136c-6-6-6-16 0-22 6-7 17-7 23 0 42 42 65 98 65 158s-23 116-65 158zm-142-154c-3 3-5 7-5 11v115c0 9-7 16-16 16s-16-7-16-16v-121c0-9 3-17 9-23l86-86c3-3 7-4 12-4 4 0 8 1 11 4 6 7 6 17 0 23z"/><glyph unicode="" d="M432 176c-9 0-16-7-16-16v-96h-352v96c0 9-7 16-16 16s-16-7-16-16v-96c0-18 14-32 32-32h352c18 0 32 14 32 32v96c0 9-7 16-16 16zm-192 0l136 136c6 6 6 16 0 22-6 7-17 7-23 0l-97-97v259c0 4-2 8-5 11s-7 5-11 5c-9 0-16-7-16-16v-259l-97 97c-6 7-17 7-23 0-6-6-6-16 0-22z"/><glyph unicode="" d="M464 320h-224c-9 0-16-7-16-16s7-16 16-16h224c9 0 16 7 16 16s-7 16-16 16zm16 80c0 9-7 16-16 16h-416c-9 0-16-7-16-16s7-16 16-16h416c9 0 16 7 16 16zm-16-176h-224c-9 0-16-7-16-16s7-16 16-16h224c9 0 16 7 16 16s-7 16-16 16zm0-96h-224c-9 0-16-7-16-16s7-16 16-16h224c9 0 16 7 16 16s-7 16-16 16z"/><glyph unicode="" d="M496 64h-16v272c0 9-7 16-16 16h-96c-9 0-16-7-16-16v-272h-32v400c0 9-7 16-16 16h-96c-9 0-16-7-16-16v-400h-32v176c0 9-7 16-16 16h-96c-9 0-16-7-16-16v-176h-16c-9 0-16-7-16-16s7-16 16-16h480c9 0 16 7 16 16s-7 16-16 16zm-432 0v160h64v-160zm160 0v384h64v-384zm160 0v256h64v-256z"/><glyph unicode="" d="M400 32h-256c-21 0-28 10-31 17-2 6-4 18 12 32l184 165c3 3 4 6 4 10s-1 7-4 10l-184 165c-16 14-14 26-12 32 3 7 10 17 31 17h256c26 0 48-22 48-48v-48c0-9-7-16-16-16s-16 7-16 16v48c0 9-7 16-16 16h-246l176-159c10-8 15-20 15-33s-5-25-15-33l-176-159h246c9 0 16 7 16 16v48c0 9 7 16 16 16s16-7 16-16v-48c0-26-22-48-48-48z"/><glyph unicode="" d="M480 237v179c0 18-14 32-32 32h-384c-18 0-32-14-32-32v-320c0-18 14-32 32-32h243c8 0 16 3 22 9l142 142c6 6 9 14 9 22zm-160-128v115h115zm128 147h-128c-18 0-32-14-32-32v-128h-224v320h384z"/><glyph unicode="" d="M368 0l136 136c6 6 6 16 0 22-6 7-17 7-23 0l-97-97v259c0 4-2 8-5 11s-7 5-11 5c-9 0-16-7-16-16v-259l-97 97c-6 7-17 7-23 0-6-6-6-16 0-22zm-224 512l-136-136c-6-6-6-16 0-22 6-7 17-7 23 0l97 97v-259c0-4 2-8 5-11s7-5 11-5c9 0 16 7 16 16v259l97-97c6-7 17-7 23 0 6 6 6 16 0 22z"/><glyph unicode="" d="M433 394c-42 42-98 66-158 66-59 0-115-24-158-65l-85 85v-192h192l-84 84c36 36 84 55 135 55s100-19 136-56c75-75 75-196 0-271s-197-75-272 0c-6 6-16 6-22 0-7-7-7-17 0-23 43-44 101-65 158-65s115 21 158 65c88 87 88 230 0 317z"/><glyph unicode="" d="M416 480h-320c-18 0-32-14-32-32v-416c0-18 14-32 32-32h320c18 0 32 14 32 32v416c0 18-14 32-32 32zm0-448h-320v416h320zm-288 384h256v-64h-256zm0-192h64v-64h-64zm96 0h64v-64h-64zm-96 96h64v-64h-64zm192 0h64v-64h-64zm-96 0h64v-64h-64zm-96-192h64v-64h-64zm192 96h64v-160h-64zm-96-96h64v-64h-64z"/><glyph unicode="" d="M448 416h-384c-18 0-32-14-32-32v-256c0-18 14-32 32-32h384c18 0 32 14 32 32v256c0 18-14 32-32 32zm-192-203l-185 171h370zm-89 40l-103-103v198zm23-21l55-51c6-6 16-6 22 0l55 51 104-104h-340zm155 21l103 95v-198z"/><glyph unicode="" d="M432 464h-384c-18 0-32-14-32-32v-352c0-18 14-32 32-32h384c18 0 32 14 32 32v352c0 18-14 32-32 32zm16-384c0-9-7-16-16-16h-384c-9 0-16 7-16 16v288h416zm-416 304v48c0 9 7 16 16 16h384c9 0 16-7 16-16v-48zm226-261c1-3 4-5 7-5 1 0 2 0 3 1 4 1 6 6 4 10l-37 88 69-5-128 119v-174l44 54z"/><glyph unicode="" d="M502 237l-70 67v160h-80v-82l-79 77c-10 9-24 9-34 0l-229-222c-3-4-3-9 0-12s8-3 12 0l58 57v-266h352v266l58-57c2-1 4-2 6-2s4 1 6 2c3 3 3 8 0 12zm-134 211h48v-128l-48 46zm-144-416v165c0 6 5 11 11 11h42c6 0 11-5 11-11v-165zm192 0h-112v165c0 15-12 27-27 27h-42c-15 0-27-12-27-27v-165h-112v265l154 150c4 3 8 3 12 0l154-150z"/><glyph unicode="" d="M104 296c-6-6-6-16 0-22 6-7 17-7 23 0l97 97v-275c0-9 7-16 16-16 4 0 8 2 11 5s5 7 5 11v275l97-97c6-7 17-7 23 0 6 6 6 16 0 22l-136 136z"/><glyph unicode="" d="M384 32h-288c-9 0-16 7-16 16s7 16 16 16h288c9 0 16-7 16-16s-7-16-16-16zm-280 232c-6 6-6 16 0 22 6 7 17 7 23 0l97-97v275c0 9 7 16 16 16 4 0 8-2 11-5s5-7 5-11v-275l97 97c6 7 17 7 23 0 6-6 6-16 0-22l-136-136z"/><glyph unicode="" d="M256 512c-141 0-256-115-256-256s115-256 256-256 256 115 256 256-115 256-256 256zm0-480c-124 0-224 100-224 224s100 224 224 224 224-100 224-224-100-224-224-224zm32 320c0-18-14-32-32-32s-32 14-32 32 14 32 32 32 32-14 32-32zm-16-64h-32c-9 0-16-7-16-16v-128c0-9 7-16 16-16h32c9 0 16 7 16 16v128c0 9-7 16-16 16z"/><glyph unicode="" d="M288 96c0-18-14-32-32-32s-32 14-32 32 14 32 32 32 32-14 32-32zm-16 224h-32c-9 0-16-7-16-16v-128c0-9 7-16 16-16h32c9 0 16 7 16 16v128c0 9-7 16-16 16zm221-183l-158 274c-22 38-50 57-79 57s-57-19-79-57l-158-274c-44-75-8-137 79-137h316c87 0 123 62 79 137zm-18-81c-9-15-31-24-61-24h-316c-30 0-52 9-61 24-9 16-6 39 9 65l159 274c14 26 33 41 51 41s37-15 51-41l159-274c15-26 18-49 9-65z"/><glyph unicode="" d="M452 111c-2 15-14 29-28 34l-76 24c-3 1-8 6-8 9l-11 46c42 24 71 72 71 128 0 79-57 144-128 144s-128-65-128-144c0-56 29-104 71-128l-11-46c0-3-5-8-8-8l-76-25c-14-5-26-19-28-34l-13-76c-2-9 4-17 13-19h2c8 0 15 6 16 13l13 77c1 3 5 7 7 8l76 25c14 5 26 18 30 32l9 40c8-2 18-3 27-3s19 1 27 3l9-40c4-14 16-27 30-32l76-25c2-1 6-5 7-8l13-77c1-7 8-13 15-13h3c9 2 15 10 13 19zm-276 241c0 62 43 112 96 112s96-50 96-112-43-112-96-112-96 50-96 112z"/><glyph unicode="" d="M480 288c9 0 16 7 16 16s-7 16-16 16h-137l132 133c7 6 7 16 0 22-3 3-7 5-11 5s-8-2-11-5l-133-132v137c0 9-7 16-16 16s-16-7-16-16v-192zm-448-96h137l-132-133c-7-6-7-16 0-22 6-7 16-7 22 0l133 132v-137c0-9 7-16 16-16s16 7 16 16v192h-192c-9 0-16-7-16-16s7-16 16-16z"/><glyph unicode="" d="M104 216c-6 6-6 16 0 22 6 7 17 7 23 0l97-97v275c0 9 7 16 16 16 4 0 8-2 11-5s5-7 5-11v-275l97 97c6 7 17 7 23 0 6-6 6-16 0-22l-136-136z"/><glyph unicode="" d="M480 288v192l-84-84c-88 85-228 84-314-2-88-87-88-230 0-317 43-44 101-65 158-65s115 21 158 65c7 6 7 17 0 23-6 6-16 6-22 0-75-75-197-75-272 0s-75 196 0 271c74 74 194 75 269 2l-85-85z"/><glyph unicode="" d="M427 351c-6 6-16 6-22 0l-149-149-149 149c-6 6-16 6-22 0-3-4-5-8-5-12s2-8 5-11l171-171 171 171c7 6 7 16 0 23z"/><glyph unicode="" d="M427 184l-171 171-171-171c-3-3-5-7-5-11s2-9 5-12c6-6 16-6 22 0l149 149 149-149c6-6 16-6 22 0 7 7 7 17 0 23z"/><glyph unicode="" d="M104 427c-6 7-16 7-23 0-6-6-6-16 0-22l149-149-149-149c-6-6-6-16 0-22 4-3 8-5 12-5s8 2 11 5l171 171zm160 0c-6 7-16 7-23 0-6-6-6-16 0-22l149-149-149-149c-6-6-6-16 0-22 4-3 8-5 12-5s8 2 11 5l171 171z"/><glyph unicode="" d="M339 80c-4 0-8 2-11 5l-171 171 171 171c6 7 16 7 23 0 6-6 6-16 0-22l-149-149 149-149c6-6 6-16 0-22-4-3-8-5-12-5z"/><glyph unicode="" d="M282 256l149 149c6 6 6 16 0 22-7 7-17 7-23 0l-171-171 171-171c3-3 7-5 11-5s9 2 12 5c6 6 6 16 0 22zm-160 0l149 149c6 6 6 16 0 22-7 7-17 7-23 0l-171-171 171-171c3-3 7-5 11-5s9 2 12 5c6 6 6 16 0 22z"/><glyph unicode="" d="M184 427c-6 7-16 7-23 0-6-6-6-16 0-22l149-149-149-149c-6-6-6-16 0-22 4-3 8-5 12-5s8 2 11 5l171 171z"/><glyph unicode="" d="M448 448h-384c-18 0-32-14-32-32v-320c0-18 14-32 32-32h384c18 0 32 14 32 32v320c0 18-14 32-32 32zm-384-352v224h96v-224zm384 0h-256v96h256zm0 128h-256v96h256zm-256 128h-128v64h384v-64z"/><glyph unicode="" d="M472 310c-2 6-8 10-15 10h-145l69 170c2 7 0 15-6 19s-15 4-20-1l-311-288c-5-5-6-12-4-18s8-10 15-10h145l-69-170c-2-7 0-15 6-19 3-2 6-3 9-3 4 0 8 1 11 4l311 288c5 5 6 12 4 18zm-284-234l51 126c2 5 1 11-2 15s-8 7-13 7h-128l228 212-51-126c-2-5-1-11 2-15s8-7 13-7h128z"/><glyph unicode="" d="M176 445c-2 6-8 10-15 10-6 0-12-4-15-10l-145-361c-3-8 1-18 9-21s18 1 21 9l48 120h163l47-120c3-6 9-10 15-10 2 0 4 0 6 1 8 3 12 13 9 21zm-84-221l69 172 68-172zm292 64c0-18-14-32-32-32s-32 14-32 32 14 32 32 32 32-14 32-32zm128 0c0-18-14-32-32-32s-32 14-32 32 14 32 32 32 32-14 32-32z"/><glyph unicode="" d="M439 503c-13 12-33 12-46 0 0 0-5-5-11-12-6-6-18-11-27-11h-35c-1 18-15 32-32 32h-97c-26 0-51-10-70-28l-58-58c-59-57-46-76 29-41l38 18c14 6 28 9 43 9h19v-364c0-26 22-48 48-48h32c26 0 48 22 48 48v368h51l22-23c13-12 33-12 46 0 6 7 9 15 9 23v64c0 8-3 16-9 23zm-151-455c0-9-7-16-16-16h-32c-9 0-16 7-16 16v272h64z"/><glyph unicode="" d="M256 512c141 0 256-115 256-256s-115-256-256-256-256 115-256 256 115 256 256 256zm0-32v-448c124 0 224 100 224 224s-100 224-224 224z"/><glyph unicode="" d="M464 336c26 0 48 22 48 48v80c0 9-7 16-16 16s-16-7-16-16v-80c0-9-7-16-16-16h-96c0 62-50 112-112 112s-112-50-112-112h-96c-9 0-16 7-16 16v80c0 9-7 16-16 16s-16-7-16-16v-80c0-26 22-48 48-48h48v-80h-80c-9 0-16-7-16-16s7-16 16-16h82c1-18 6-36 14-52l-70-20c-23-7-42-31-42-56v-64c0-9 7-16 16-16s16 7 16 16v64c0 10 9 23 19 25l78 23c29-39 75-64 127-64s98 25 127 64l78-23c10-2 19-15 19-25v-64c0-9 7-16 16-16s16 7 16 16v64c0 25-19 49-42 56l-70 20c8 16 13 34 14 52h82c9 0 16 7 16 16s-7 16-16 16h-80v80zm-208 112c44 0 80-36 80-80h-160c0 44 36 80 80 80zm128-208c0-71-57-128-128-128s-128 57-128 128v96h256z"/><glyph unicode="" d="M160 390v-304l75 87 67-159c3-6 9-10 15-10 2 0 4 1 6 2 8 3 12 12 9 21l-68 159 120-5zm-128-230h-32v-96h96v32h-64zm448-64h-64v-32h96v96h-32zm0 384h-96v-32h96v-64h32v96zm-480 0v-96h32v64h96v32zm192 0h128v-32h-128zm-192-158h32v-94h-32zm480 0h32v-94h-32z"/><glyph unicode="" d="M503 262l-55 55v195h-96v-99l-97 98-249-249c-6-6-6-16 0-22 7-6 17-6 23 0l35 35v-275h384v272l32-32c3-3 7-5 11-5s9 2 12 5c6 6 6 16 0 22zm-215-230h-64v192h64zm128 0h-96v192c0 18-14 32-32 32h-64c-18 0-32-14-32-32v-192h-96v275l159 158 161-161zm0 317l-32 32v99h32z"/><glyph unicode="" d="M448 64h-416v224h100l33 32h-133v64h201l34 32h-235c-18 0-32-14-32-32v-320c0-18 14-32 32-32h416c18 0 32 14 32 32v276l-32-30zm-259 186l-24-63c-2-5 3-10 8-8l65 24c4 2 7 4 10 7l222 209c13 12 13 33 0 46l-5 5c-13 13-34 13-46 0l-222-208c-3-3-6-7-8-12z"/><glyph unicode="" d="M480 512h-352c-18 0-32-14-32-32v-32h-48c-26 0-48-22-48-48v-96c0-26 22-48 48-48h224c9 0 16-7 16-16v-48c-18 0-32-14-32-32v-128c0-18 14-32 32-32h32c18 0 32 14 32 32v128c0 18-14 32-32 32v48c0 26-22 48-48 48h-224c-9 0-16 7-16 16v96c0 9 7 16 16 16h48v-32c0-18 14-32 32-32h352c18 0 32 14 32 32v96c0 18-14 32-32 32zm-160-480h-32v128h32zm160 352h-352v96h352z"/><glyph unicode="" d="M160 128h-112c-9 0-16 7-16 16v224c0 9 7 16 16 16h112v-96l112 112-112 112v-96h-112c-26 0-48-22-48-48v-224c0-26 22-48 48-48h112c9 0 16 7 16 16s-7 16-16 16zm304 288h-112c-9 0-16-7-16-16s7-16 16-16h112c9 0 16-7 16-16v-224c0-9-7-16-16-16h-112v96l-112-112 112-112v96h112c26 0 48 22 48 48v224c0 26-22 48-48 48z"/><glyph unicode="" d="M480 320h-64c-18 0-32-14-32-32v-224c0-18 14-32 32-32h64c18 0 32 14 32 32v224c0 18-14 32-32 32zm0-256h-64v224h64zm-160 256h-64c-18 0-32-14-32-32v-224c0-18 14-32 32-32h64c18 0 32 14 32 32v224c0 18-14 32-32 32zm0-256h-64v224h64zm-160 256h-128c-18 0-32-14-32-32v-224c0-18 14-32 32-32h128c18 0 32 14 32 32v224c0 18-14 32-32 32zm0-256h-128v224h128zm320 416h-448c-18 0-32-14-32-32v-64c0-18 14-32 32-32h448c18 0 32 14 32 32v64c0 18-14 32-32 32zm0-96h-448v64h448z"/><glyph unicode="" d="M472 471c-12 13-29 20-46 20-14 0-28-4-38-14l-309-309c-6-5-9-12-12-19l-46-119c-2-5 2-10 8-10h3l118 45c7 3 14 7 19 12l309 309c22 24 18 63-6 85zm-17-62l-309-309c-1-2-3-3-7-5l-69-26 26 68c2 5 4 7 5 8l308 308c6 5 12 6 17 6 9 0 17-3 23-10h1l1-1c5-5 9-13 9-21 1-4 0-13-5-18zm-335-153l23 23-93 93c-7 6-7 16 0 23l67 67c7 7 17 7 23 0l20-19-31-32 22-22 31 31 29-28-32-32 23-22 54 54-93 93c-19 19-49 19-68 0l-68-68c-19-19-19-49 0-68zm365-93l-93 93-54-54 22-23 32 32 28-29-31-31 22-23 32 32 19-20c7-6 7-16 0-23l-67-67c-7-7-17-7-23 0l-93 93-23-23 93-93c10-9 22-14 34-14 13 0 25 5 34 14l68 68c19 19 19 49 0 68z"/><glyph unicode="" d="M112 512c-62 0-112-50-112-112s50-112 112-112 112 50 112 112-50 112-112 112zm0-192c-44 0-80 36-80 80s36 80 80 80 80-36 80-80-36-80-80-80zm-112-320h224l-112 224zm52 32l60 120 60-120zm268 384h160c9 0 16 7 16 16s-7 16-16 16h-160c-9 0-16-7-16-16s7-16 16-16zm160-64h-160c-9 0-16-7-16-16s7-16 16-16h160c9 0 16 7 16 16s-7 16-16 16zm0-160h-160c-9 0-16-7-16-16s7-16 16-16h160c9 0 16 7 16 16s-7 16-16 16zm0-96h-160c-9 0-16-7-16-16s7-16 16-16h160c9 0 16 7 16 16s-7 16-16 16z"/><glyph unicode="" d="M320 448h160c9 0 16 7 16 16s-7 16-16 16h-160c-9 0-16-7-16-16s7-16 16-16zm160-64h-160c-9 0-16-7-16-16s7-16 16-16h160c9 0 16 7 16 16s-7 16-16 16zm0-192h-160c-9 0-16-7-16-16s7-16 16-16h160c9 0 16 7 16 16s-7 16-16 16zm0-96h-160c-9 0-16-7-16-16s7-16 16-16h160c9 0 16 7 16 16s-7 16-16 16zm-369-18c31 16 66 34 66 72 0 41-34 74-74 74-41 0-74-33-74-74 0-8 7-16 16-16s16 8 16 16c0 23 18 42 41 42s42-19 42-42c0-17-17-28-47-43-31-15-65-33-65-72v-19c0-9 4-16 13-16h115c9 0 16 7 16 16s-7 16-16 16h-96v3c0 18 17 28 47 43zm-64 363l49 28v-165c0-9 7-16 16-16s16 7 16 16v192c0 6-3 11-8 14s-11 3-16 0l-73-41c-7-4-10-14-6-22s14-10 22-6z"/><glyph unicode="" d="M192 320c0-18-14-32-32-32s-32 14-32 32 14 32 32 32 32-14 32-32zm96 0c0-18-14-32-32-32s-32 14-32 32 14 32 32 32 32-14 32-32zm96 0c0-18-14-32-32-32s-32 14-32 32 14 32 32 32 32-14 32-32zm0 160h-256c-71 0-128-57-128-128v-64c0-71 57-128 128-128h16c9 0 16-7 16-16v-73c0-10 8-16 16-16 4 0 8 1 11 4l96 96c3 3 7 5 12 5h89c71 0 128 57 128 128v64c0 71-57 128-128 128zm96-192c0-53-43-96-96-96h-89c-13 0-25-5-34-14l-69-69v35c0 26-22 48-48 48h-16c-53 0-96 43-96 96v64c0 53 43 96 96 96h256c53 0 96-43 96-96z"/><glyph unicode="" d="M240 496c-133 0-240-86-240-192 0-61 36-114 92-149l-13-123c-1-11 7-18 15-18 4 0 7 1 10 4l107 98c9-1 19-2 29-2 133 0 240 84 240 190s-107 192-240 192zm0-350c-8 0-16 0-26 1l-14 2-11-10-73-67 8 80 2 19-17 11c-50 31-77 75-77 122 0 88 93 160 208 160s208-72 208-160c0-87-93-158-208-158zm80 174h-64v64c0 9-7 16-16 16s-16-7-16-16v-64h-64c-9 0-16-7-16-16s7-16 16-16h64v-64c0-9 7-16 16-16s16 7 16 16v64h64c9 0 16 7 16 16s-7 16-16 16z"/><glyph unicode="" d="M432 480h-352c-26 0-48-22-48-48v-32c0-26 22-48 48-48h352c26 0 48 22 48 48v32c0 26-22 48-48 48zm16-80c0-9-7-16-16-16h-352c-9 0-16 7-16 16v32c0 9 7 16 16 16h352c9 0 16-7 16-16zm-16-80h-352c-26 0-48-22-48-48v-32c0-26 22-48 48-48h352c26 0 48 22 48 48v32c0 26-22 48-48 48zm16-80c0-9-7-16-16-16h-352c-9 0-16 7-16 16v32c0 9 7 16 16 16h352c9 0 16-7 16-16zm-16-80h-352c-26 0-48-22-48-48v-32c0-26 22-48 48-48h352c26 0 48 22 48 48v32c0 26-22 48-48 48zm16-80c0-9-7-16-16-16h-352c-9 0-16 7-16 16v32c0 9 7 16 16 16h352c9 0 16-7 16-16z"/><glyph unicode="" d="M406 324l-149 21-145 146c-6 6-15 9-23 9s-16-3-22-9l-46-46c-12-12-12-32 0-45l146-145 21-149c2-9 9-14 16-14 4 0 8 1 12 5l199 199c10 10 4 26-9 28zm-317 144l136-136-45-45-136 136zm127-326l-17 117-1 1 54 54 1-1 117-17zm161 15c-6 7-16 7-22 0-7-6-7-16 0-22l54-55c3-3 7-4 11-4s8 1 12 4c6 7 6 17 0 23zm111 61l-74 20c-8 2-17-3-20-12-2-8 3-17 12-19l74-20c1-1 3-1 4-1 7 0 14 5 15 12 3 9-2 17-11 20zm-183-112c-2 9-11 14-19 12-9-3-14-11-12-20l20-74c2-7 9-12 16-12 1 0 3 0 4 1 8 2 14 11 11 19z"/><glyph unicode="" d="M400 323c0-4-2-8-5-11l-139-139-139 139c-7 6-7 16 0 23 6 6 16 6 22 0l117-117 117 117c6 6 16 6 22 0 3-4 5-8 5-12z"/><glyph unicode="" d="M128 416v-320l256 160zm32-58l164-102-164-102z"/><glyph unicode="" d="M256 384l-160-256h320zm0-60l102-164h-204z"/><glyph unicode="" d="M96 384l160-256 160 256zm58-32h204l-102-164z"/><glyph unicode="" d="M323 112c-4 0-8 2-11 5l-139 139 139 139c6 7 16 7 23 0 6-6 6-16 0-22l-117-117 117-117c6-6 6-16 0-22-4-3-8-5-12-5z"/></font>
</defs>
</svg>
